Скачать через торрент Диггеры Фильм бесплатно в хорошем качестве torrent

Скачивайте на UnionPeer.org фильмы через торрент без регистрации. Новинки кино в хорошем качестве через торрент. На UnionPeer.org можно скачать через торрент фильмы 2014 и 2015 годов. Самые новые фильмы.

Скачать торрент Диггеры бесплатно через .torrent фильм мультфильм сериал

Статистика раздачи
Размер:  2.5 GB   |    Зарегистрирован:  2 года 2 месяца   |    .torrent скачан:  769 раз   |   
Раздают:  1  
   
загрузка...
 
Автор Сообщение

Galfimbul

avatar Galfimbul


Диггеры
«Каждый день в метро спускается больше людей, чем поднимается обратно…»
Год выпуска: 2016
Страна: Россия
Жанр: ужасы
Продолжительность: 01:18:54
Перевод: Не требуется - Имеется реклама от спонсора показа!
Субтитры: Нет
Режиссер: Тихон Корнев
Сценарий: Тихон Корнев, Алексей Караулов, Евгений Колядинцев
Продюсер: Андрей Радько, Екатерина Гордецкая, Максим Королев
Оператор: Георгий Егоров
Композитор: Антон Новосельцев, Сергей Боголюбский, Кирилл Немоляев
Художник: Анастасия Каримулина, Жанна Сердюк
Монтаж: Константин Мазур
В ролях: Роман Евдокимов , Анна Васильева , Алёна Савастова , Владимир Кузнецов , Андрей Лёвин , Мария Щекатурова , Евгений Коряковский , Дин Фан



Описание: Ночное метро. Несколько минут до закрытия. Последний поезд на полном ходу пролетает мимо конечной станции, увозя в темноту туннеля ничего не понимающих пассажиров. Официальные власти засекречивают информацию о бесследно исчезнувших людях. Через несколько дней, на поиски пропавших отправляются их друзья. Им предстоит вспомнить все жуткие городские легенды, которыми окутано московское подземелье…. И узнать, что реальность может быть намного страшнее…


Качество: WEB-DL 720p
Формат: MKV
Видео кодек: AVC
Аудио кодеk: AC3
Видео: 1280x536 (2.40:1), 25.000 fps, AVC, 3 999 Kbps
Аудио: Аудио #1: AC3, 448 Kbps, 48.0 KHz, 2 ch [Rus]

<a href="http://www.kinopoisk.ru/film/899500/" target="_blank" /><img align="absmiddle" src="kinopoisk.php?id=899500" style="padding: 5px;" /></a>

<div class="code_wrap"> <div class="code_head"> <p style="float: left;">Код:</p> <script type="text/javascript"> copyText_writeLink('this.parentNode.parentNode.nextSibling.nextSibling'); </script> </div><!--/code_head--> <div class="code">General
Unique ID                                : 200698508691580619286765603732205757553 (0x96FD2073E31CCE369CF44C120B6E6471)
Complete name                            : Diggers.21O6.O.WEB-DL.72OP_KOSHARA.mkv
Format                                   : Matroska
Format version                           : Version 2
File size                                : 2.50 GiB
Duration                                 : 1h 18mn
Overall bit rate mode                    : Constant
Overall bit rate                         : 4 537 Kbps
Encoded date                             : UTC 2016-09-11 13:17:38
Writing application                      : mkvmerge v8.3.0 ('Over the Horizon') 64bit
Writing library                          : libebml v1.3.1 + libmatroska v1.4.2
DURATION                                 : 01:18:54.624000000
NUMBER_OF_FRAMES                         : 147957
NUMBER_OF_BYTES                          : 265138944
_STATISTICS_WRITING_APP                  : mkvmerge v8.3.0 ('Over the Horizon') 64bit
_STATISTICS_WRITING_DATE_UTC             : 2016-09-11 13:17:38
_STATISTICS_TAGS                         : BPS DURATION NUMBER_OF_FRAMES NUMBER_OF_BYTES

Video
ID                                       : 1
Format                                   : AVC
Format/Info                              : Advanced Video Codec
Format profile                           : High@L4.1
Format settings, CABAC                   : Yes
Format settings, ReFrames                : 12 frames
Codec ID                                 : V_MPEG4/ISO/AVC
Duration                                 : 1h 18mn
Bit rate mode                            : Constant
Bit rate                                 : 3 999 Kbps
Nominal bit rate                         : 4 400 Kbps
Width                                    : 1 280 pixels
Height                                   : 536 pixels
Display aspect ratio                     : 2.40:1
Frame rate mode                          : Constant
Frame rate                               : 25.000 fps
Standard                                 : Component
Color space                              : YUV
Chroma subsampling                       : 4:2:0
Bit depth                                : 8 bits
Scan type                                : Progressive
Bits/(Pixel*Frame)                       : 0.233
Stream size                              : 2.20 GiB (88%)
Default                                  : Yes
Forced                                   : No
Color primaries                          : BT.709
Transfer characteristics                 : BT.709
Matrix coefficients                      : BT.709

Audio
ID                                       : 2
Format                                   : AC-3
Format/Info                              : Audio Coding 3
Mode extension                           : CM (complete main)
Format settings, Endianness              : Big
Codec ID                                 : A_AC3
Duration                                 : 1h 18mn
Bit rate mode                            : Constant
Bit rate                                 : 448 Kbps
Channel(s)                               : 2 channels
Channel positions                        : Front: L R
Sampling rate                            : 48.0 KHz
Bit depth                                : 16 bits
Compression mode                         : Lossy
Stream size                              : 253 MiB (10%)
Default                                  : Yes
Forced                                   : No </div><!--/code--></div><!--/code_wrap-->

» В кастинге на главные роли участвовало более 200 актеров.

» «Роль» московского метрополитена сыграла питерская подземка. Также тоннель метро построили на заброшенном военном объекте в Ленинградской области.

» Съемки продлились 27 дней и проходили в июле-августе 2015 года в Санкт-Петербурге и Москве.

» Дебют режиссера и сценариста Тихона Корнева в полнометражном кино.

» Первые кадры фильма — документальные. Актриса Мария Щекатурова, сыгравшая девушку-косплеера, в образе отправилась на питерский фестиваль «Старкон», где сняла происходящее на камеру GoPro.

» Исполнительница главной роли Анна Васильева — профессиональный каскадер.

» «Диггеры» — первый в истории мирового кинематографа фильм, в котором в качестве орудия убийства используется палка для селфи с работающей камерой.

Бюджет: 52 000 000 руб.
Сборы в России: $624 999
Зрители: Россия 182.2 тыс.
Премьера (мир): 11 августа 2016
Премьера (РФ): 11 августа 2016




Трекер:  [ 11-Сен-2016 23:48 ]

  

Скачать .torrent

Размер .torrent файла 25 KB


Размер: 2.5 GB
Хэш (hash) релиза: 6da12440188e04948c8faff7fe6dfbfe18c4fd3f
Подписка на обновления:

Торренты, похожие на Диггеры скачать торрент

Форум Название Автор Размер S L Добавлен
Российские фильмы 2016-2018 (Новинки русского кино) ·%· Диггеры (2016) BDRip-AVC от ExKinoRay | ITA-Transfer | Лицензия Galfimbul 20270876231.89 GB 0 0 1538373167

08:52

1-Окт-18

Российские фильмы до 2016 ·· Диггеры (Тихон Корнев) [2016, ужасы, WEB-DLRip] Galfimbul 778121216742 MB 0 0 1474408275

00:51

21-Сен-16

Российские фильмы до 2016 ·· Диггеры (Тихон Корнев) [2016, Россия, ужасы, WEB-DL 1080p] Galfimbul 29564083282.75 GB 0 0 1474394600

21:03

20-Сен-16

Российские фильмы 2016-2018 (Новинки русского кино) ·· Диггеры (Тихон Корнев) [2016, ужасы, WEB-DL 1080p] iTunes Galfimbul 29564083282.75 GB 0 0 1474278359

12:45

19-Сен-16

Российские фильмы 2016-2018 (Новинки русского кино) ·· Диггеры (Тихон Корнев) [2016, ужасы, WEB-DLRip 720p] iTunes Galfimbul 26846548882.5 GB 0 0 1474278352

12:45

19-Сен-16

Российские фильмы 2016-2018 (Новинки русского кино) ·· Диггеры (Тихон Корнев) [2016, ужасы, WEB-DLRip] iTunes Galfimbul 14648299521.36 GB 0 0 1474278346

12:45

19-Сен-16

Российские фильмы 2016-2018 (Новинки русского кино) ·· Диггеры (Тихон Корнев) [2016, ужасы, WEBRip] Galfimbul 14674227201.37 GB 0 0 1473765419

14:16

13-Сен-16

Российские фильмы 2016-2018 (Новинки русского кино) ·· Диггеры (Тихон Корнев) [2016, ужасы, TS] Galfimbul 14679818241.37 GB 0 0 1471156968

09:42

14-Авг-16

Еще никто не оставлял запись к записи скачать торрент Диггеры . Будь первым!

!Обратная связь