Скачать через торрент Эластико Фильм бесплатно в хорошем качестве torrent

Скачивайте на UnionPeer.org фильмы через торрент без регистрации. Новинки кино в хорошем качестве через торрент. На UnionPeer.org можно скачать через торрент фильмы 2014 и 2015 годов. Самые новые фильмы.

Скачать торрент Эластико бесплатно через .torrent фильм мультфильм сериал

Статистика раздачи
Размер:  2.9 GB   |    Зарегистрирован:  2 года   |    .torrent скачан:  1370 раз   |   
Раздают:  1  
   
загрузка...
 
Автор Сообщение

Galfimbul

avatar Galfimbul


Название: Эластико
Год выхода: 2016
Жанр: спорт, мелодрама, криминал
Режиссер: Михаил Расходников
В ролях: Дмитрий Власкин, Ирина Антоненко, Алексей Маклаков, Александр Фролов, Владимир Епифанцев, Никита Волков, Никита Павленко, Ирина Безряднова, Максим Сорочинский, Петр Прозоровский

О фильме: Матвей — простой парень из провинциального города. Он вырос с друзьями «на районе», здесь же встретил свою любовь — Дашу. От других Матвея отличают уникальные физические данные — крепкие ноги, мощная дыхалка, поразительная выносливость. Свой талант он использует, выигрывая со своей командой всех в дворовом футболе… и в мелких криминальных авантюрах, которые ему подгоняет друг Каша. Любимую девушку Дашу это очень беспокоит, и она всячески пытается оградить своего парня от необратимой ошибки. А подруги пытаются убедить Дашу бросить Матвея, ведь у нее даже есть перспективный вариант — обеспеченный ухажер Вадим. Неожиданно у Матвея появляется просто сказочная возможность поехать на смотр в Москву в футбольный клуб Премьер-лиги, но он не хочет оставлять Дашу, когда рядом «вьется» Вадим. А для того, чтобы взять её с собой, нужно достать деньги.


Выпущено: Россия
Продолжительность: 01:21:25
Озвучивание: Оригинальное [iTunes]

Релиз без рекламы.

Файл
Формат: MKV (x264)
Качество: WEB-DL 1080p
Видео: 4709 kb/s, 1920x804
Аудио: AC3, 384 kb/s (6 ch)



Format : Matroska
Format version : Version 2
File size : 2.90 GiB
Duration : 1 h 21 min
Overall bit rate : 5 095 kb/s
Encoded date : UTC 2016-12-14 19:26:41
Writing application : mkvmerge v8.3.0 ('Over the Horizon') 64bit
Writing library : libebml v1.3.1 + libmatroska v1.4.2

Video
ID : 1
Format : AVC
Format/Info : Advanced Video Codec
Format profile : High@L4
Format settings, CABAC : Yes
Format settings, ReFrames : 5 frames
Codec ID : V_MPEG4/ISO/AVC
Duration : 1 h 21 min
Bit rate : 4 709 kb/s
Width : 1 920 pixels
Height : 804 pixels
Display aspect ratio : 2.40:1
Frame rate mode : Constant
Frame rate : 25.000 FPS
Color space : YUV
Chroma subsampling : 4:2:0
Bit depth : 8 bits
Scan type : Progressive
Bits/(Pixel*Frame) : 0.122
Stream size : 2.68 GiB (92%)
Language : English
Default : Yes
Forced : No
Color range : Limited
Color primaries : BT.709
Transfer characteristics : BT.709
Matrix coefficients : BT.709

Audio
ID : 2
Format : AC-3
Format/Info : Audio Coding 3
Mode extension : CM (complete main)
Format settings, Endianness : Big
Codec ID : A_AC3
Duration : 1 h 21 min
Bit rate mode : Constant
Bit rate : 384 kb/s
Channel(s) : 6 channels
Channel positions : Front: L C R, Side: L R, LFE
Sampling rate : 48.0 kHz
Frame rate : 31.250 FPS (1536 spf)
Compression mode : Lossy
Stream size : 224 MiB (8%)
Language : Russian
Default : Yes
Forced : No

Menu
00:00:00.000 : en:Глава 1
00:08:02.920 : en:Глава 2
00:15:23.280 : en:Глава 3
00:21:52.440 : en:Глава 4
00:29:48.040 : en:Глава 5
00:37:05.120 : en:Глава 6
00:44:51.880 : en:Глава 7
00:51:16.960 : en:Глава 8
00:58:29.800 : en:Глава 9
01:05:10.560 : en:Глава 10
01:12:08.040 : en:Глава 11


Трекер:  [ 15-Дек-2016 03:30 ]

  

Скачать .torrent

Размер .torrent файла 15 KB


Размер: 2.9 GB
Хэш (hash) релиза: c8efa33c40a7f46118950981a67f82cfec15bde1
Подписка на обновления:

Еще никто не оставлял запись к записи скачать торрент Эластико . Будь первым!

!Обратная связь