Скачать через торрент Движение вверх Фильм бесплатно в хорошем качестве torrent

Скачивайте на UnionPeer.org фильмы через торрент без регистрации. Новинки кино в хорошем качестве через торрент. На UnionPeer.org можно скачать через торрент фильмы 2014 и 2015 годов. Самые новые фильмы.

Скачать торрент Движение вверх бесплатно через .torrent фильм мультфильм сериал

Статистика раздачи
Размер:  3.25 GB   |    Зарегистрирован:  10 месяцев   |    .torrent скачан:  1644 раза   |   
Раздают:  1  
   
загрузка...
 
Автор Сообщение

Galfimbul

avatar Galfimbul


Движение вверх



[b]Год выхода:
2017
Жанр: Спорт, драма
Режиссер: Антон Мегердичев
В ролях: Владимир Машков, Андрей Смоляков, Иван Колесников, Кирилл Зайцев, Джон Сэвэдж, Марат Башаров, Александра Ревенко, Виктория Толстоганова, Сергей Гармаш, Джеймс Тратас

О фильме:
Есть победы, которые меняют ход истории. Победы духа, победы страны, победы всего мира. Таким триумфом стали легендарные «три секунды» — выигрыш сборной СССР по баскетболу на роковой мюнхенской Олимпиаде 1972г. Впервые за 36 лет была повержена «непобедимая» команда США. Никто даже помыслить не мог о том, что это возможно — обыграть великолепных непогрешимых американцев на Олимпийских играх! Никто, кроме советских баскетболистов (русских и грузин, украинцев и казахов, белорусов и литовцев).
Когда проигрыш означал поражение страны, когда нужно было выходить и бороться в раскаленной обстановке из-за произошедшего теракта, великий тренер сборной СССР был готов на все, лишь бы помочь своим подопечным разбить американский миф о непотопляемой команде мечты. Ведь он знал, что создал самую сильную сборную на планете, и в начале заставил поверить в это своих игроков, а затем весь мир.



Страна: Россия
Студия: Студия Тритэ
Продолжительность: 02:13:50
Перевод: Не требуется | Нет перевода англоязычной речи, в кино был закадровый женский голос.

Файл
Качество: WEB-DL 720p
Кодек: MPEG-4 AVC
Видео: 1280x536 (2.40:1), 24 fps, MPEG-4 AVC ~ 3088 kbps avg, 0.188 bit/pixel
Аудио: AC3, 48 kHz, 2 ch, ~384.00 kbps avg | русский |
Субтитры: Русские
Сэмпл
Общее
Уникальный идентификатор : 143161562425385373038429864366650566376 (0x6BB3E9FBA4D6C8801CDDFD4C2CC626E8)
Полное имя : Upward.moveme.2017.WEB-DL.720p.and77200.mkv
Формат : Matroska
Версия формата : Version 4 / Version 2
Размер файла : 3,25 Гбайт
Продолжительность : 2 ч. 13 м.
Общий поток : 3474 Кбит/сек
Дата кодирования : UTC 2018-01-25 13:04:04
Программа кодирования : mkvmerge v20.0.0 ('I Am The Sun') 64-bit
Библиотека кодирования : libebml v1.3.5 + libmatroska v1.4.8

Видео
Идентификатор : 1
Формат : AVC
Формат/Информация : Advanced Video Codec
Профиль формата : High@L4.1
Настройки формата : CABAC / 5 Ref Frames
Параметр CABAC формата : Да
Параметр ReFrames формата : 5 кадров
Идентификатор кодека : V_MPEG4/ISO/AVC
Продолжительность : 2 ч. 13 м.
Битрейт : 3088 Кбит/сек
Номинальный битрейт : 3300 Кбит/сек
Ширина : 1280 пикселей
Высота : 536 пикселей
Соотношение сторон : 2,40:1
Режим частоты кадров : Постоянный
Частота кадров : 24,000 кадра/сек
Цветовое пространство : YUV
Субдискретизация насыщенности : 4:2:0
Битовая глубина : 8 бит
Тип развёртки : Прогрессивная
Бит/(Пиксели*Кадры) : 0.188
Размер потока : 2,89 Гбайт (89%)
Библиотека кодирования : x264 core 155 r2901M 7d0ff22
Настройки программы : cabac=1 / ref=5 / deblock=1:-1:-1 / analyse=0x3:0x133 / me=umh / subme=9 / psy=1 / psy_rd=1.00:0.15 / mixed_ref=1 / me_range=32 / chroma_me=1 / trellis=1 / 8x8dct=1 / cqm=0 / deadzone=21,11 / fast_pskip=1 / chroma_qp_offset=-3 / threads=5 / lookahead_threads=1 / sliced_threads=0 / nr=0 / decimate=1 / interlaced=0 / bluray_compat=0 / constrained_intra=0 / bframes=5 / b_pyramid=2 / b_adapt=2 / b_bias=0 / direct=3 / weightb=1 / open_gop=0 / weightp=2 / keyint=240 / keyint_min=24 / scenecut=40 / intra_refresh=0 / rc_lookahead=40 / rc=cbr / mbtree=1 / bitrate=3300 / ratetol=1.0 / qcomp=0.60 / qpmin=0 / qpmax=69 / qpstep=4 / vbv_maxrate=3300 / vbv_bufsize=2357 / nal_hrd=none / filler=0 / ip_ratio=1.40 / aq=1:1.00
Язык : Russian
Default : Да
Forced : Нет

Аудио
Идентификатор : 2
Формат : AC-3
Формат/Информация : Audio Coding 3
Идентификатор кодека : A_AC3
Продолжительность : 2 ч. 13 м.
Вид битрейта : Постоянный
Битрейт : 384 Кбит/сек
Каналы : 2 канала
Расположение каналов : Front: L R
Частота : 48,0 КГц
Частота кадров : 31,250 кадров/сек (1536 SPF)
Битовая глубина : 16 бит
Метод сжатия : С потерями
Размер потока : 368 Мбайт (11%)
Язык : Russian
Default : Да
Forced : Нет

Текст
Идентификатор : 3
Формат : UTF-8
Идентификатор кодека : S_TEXT/UTF8
Идентификатор кодека/Информация : UTF-8 Plain Text
Продолжительность : 2 ч. 1 м.
Битрейт : 14 бит/сек
ElementCount : 223
Размер потока : 13,0 Кбайт (0%)
Язык : Russian
Default : Да
Forced : Нет
Рип от
Источник http://arutor.org

Трекер:  [ 25-Янв-2018 19:40 ]

  

Скачать .torrent

Размер .torrent файла 16 KB


Размер: 3.25 GB
Хэш (hash) релиза: d070b6fa054f57718d508c69fd4425164830fadd
Подписка на обновления:

Торренты, похожие на Движение вверх скачать торрент

Форум Название Автор Размер S L Добавлен
Российские фильмы до 2016 ·· Движение вверх (Антон Мегердичев) [2017, Спорт, драма, WEB-DLRip-AVC] Galfimbul 27762270592.59 GB 0 0 1526658865

18:54

18-Май-18

Российские фильмы до 2016 ·· Движение вверх (Антон Мегердичев) [2017, Спорт, драма, WEB-DLRip-AVC] Galfimbul 15655781161.46 GB 0 0 1526658856

18:54

18-Май-18

Российские фильмы до 2016 ·· Движение вверх (Антон Мегердичев) [2017, Россия, спорт, драма, WEB-DL 1080p] Original Rus Galfimbul 51497361894.8 GB 0 0 1526526089

06:01

17-Май-18

Российские фильмы до 2016 ·· Движение вверх (Антон Мегердичев) [2017, Россия, спортивная драма, фильм-биография, семейный фильм, DVD9] + Original Rus Galfimbul 62896107525.86 GB 0 0 1519492042

20:07

24-Фев-18

Российские фильмы 2016-2018 (Новинки русского кино) ·· Движение вверх (Антон Мегердичев) [2017, спорт, драма, WEBRip] Galfimbul 845189120806 MB 0 0 1517233857

16:50

29-Янв-18

Российские фильмы 2016-2018 (Новинки русского кино) ·· Движение вверх (Антон Мегердичев) [2017, спорт, драма, WEBRip-AVC] Galfimbul 23565325802.19 GB 0 0 1517079626

22:00

27-Янв-18

Российские фильмы 2016-2018 (Новинки русского кино) ·· Движение вверх (Антон Мегердичев) [2017, спорт, драма, WEBRip] Galfimbul 15709636201.46 GB 0 0 1517040660

11:11

27-Янв-18

Российские фильмы 2016-2018 (Новинки русского кино) ·· Движение вверх (Антон Мегердичев) [2017, спорт, драма, WEBRip] Galfimbul 23446372282.18 GB 0 0 1517040638

11:10

27-Янв-18

Российские фильмы 2016-2018 (Новинки русского кино) ·· Движение вверх (Антон Мегердичев) [2017, спорт, драма, WEBRip] Galfimbul 15699660801.46 GB 0 0 1517034647

09:30

27-Янв-18

Российские фильмы 2016-2018 (Новинки русского кино) ·· Движение вверх (Антон Мегердичев) [2017, спорт, драма, WEBRip] Galfimbul 23365816322.18 GB 0 0 1516987234

20:20

26-Янв-18

Российские фильмы до 2016 ·· Движение вверх (Антон Мегердичев) [2017, спорт, драма, WEB-DLRip] + Sub Rus Galfimbul 23346990782.17 GB 0 0 1516903096

20:58

25-Янв-18

Российские фильмы 2016-2018 (Новинки русского кино) ·· Движение вверх (Антон Мегердичев) [2017 г., спорт, драма, WEB-DLRip] Galfimbul 14695567361.37 GB 0 0 1516867195

10:59

25-Янв-18

Российские фильмы 2016-2018 (Новинки русского кино) ·· Движение вверх (Антон Мегердичев) [2017 г., спорт, драма, WEB-DLRip] Galfimbul 733837312700 MB 0 0 1516867193

10:59

25-Янв-18

Российские фильмы до 2016 ·· Движение вверх (Антон Мегердичев) [2017, Спорт, драма, WEBRip] Galfimbul 15674122241.46 GB 0 0 1516823026

22:43

24-Янв-18

Российские фильмы 2016-2018 (Новинки русского кино) ·· Движение вверх (Антон Мегердичев) [2017, спорт, драма, WEB-DLRip-AVC] Galfimbul 14743100491.37 GB 0 0 1516809031

18:50

24-Янв-18

Еще никто не оставлял запись к записи скачать торрент Движение вверх . Будь первым!

!Обратная связь