Скачать через торрент Новогодний переполох Фильм бесплатно в хорошем качестве torrent

Скачивайте на UnionPeer.org фильмы через торрент без регистрации. Новинки кино в хорошем качестве через торрент. На UnionPeer.org можно скачать через торрент фильмы 2014 и 2015 годов. Самые новые фильмы.

Скачать торрент Новогодний переполох бесплатно через .torrent фильм мультфильм сериал

Статистика раздачи
Размер:  1.45 GB   |    Зарегистрирован:  10 месяцев   |    .torrent скачан:  129 раз   |   
Раздают:  1  
   
загрузка...
 
Автор Сообщение

Galfimbul

avatar Galfimbul


Новогодний переполох

«Битва за наследство началась»
Год выпуска: 2017
Страна: Россия
Жанр: Комедия, семейный
Продолжительность: 01:20:33
Перевод: Не требуется (русский)
Cубтитры: Нет
В ролях:Владимир Меньшов, Константин Крюков, Анастасия Макеева, Ян Цапник, Инга Оболдина, Иван Пышненко, Екатерина Гордиенко, Эрик Тевосов, Мария Вэй, Ренат Мухамбаев
Режиссёр: Кирилл Папакуль
Описание: Наверняка вы давно не играли в снежки... А в крокодила? Как ни странно, но именно этим вынуждены заниматься обитатели усадьбы Морозовых, потому что на кону отцовское наследство. И в этой нешуточной борьбе в ход идут любые средства. А средний сын Дима, неисправимый авантюрист, даже умудрился привезти с собой фиктивную семью. Только вот глава семейства, своенравный отставной генерал Георгий Иванович Морозов, даже не подозревает, что далеко не любовь к семейным традициям привела в дом всех членов семьи.

Качество видео: WEB-DLRip
Формат видео: AVI
Видео кодек: XviD
Аудио кодек: AC3
Видео: 720*304 (2,35:1), ~ 2040 К/с, 25,000 к/с, 0.373 б/п
Аудио : 48 kHz, AC3, 6 ch, 384 kbps
Общее
Полное имя : F:\Novogodniy.perepoloh.2O17.O.WEB-DLRip.14OOMB.avi
Формат : AVI
Формат/Информация : Audio Video Interleave
Размер файла : 1,37 Гбайт
Продолжительность : 1 ч. 20 м.
Общий поток : 2434 Кбит/сек
Название фильма : H0B0g0dH1j.p3P3p0L0x.2O17.O.WEB-DLRip.14OOMB
Программа кодирования : VirtualDubMod 1.5.10.2 (build 2540/release)
Формат оригинала/Имя : Movie

Видео
Идентификатор : 0
Формат : MPEG-4 Visual
Профиль формата : Advanced <a href="/cdn-cgi/l/email-protection" class="__cf_email__" data-cfemail="23704a4e534f46636f16">[email protected]</a>
Настройки формата : BVOP2
Параметр BVOP формата : 2
Параметр QPel формата : Нет
Параметр GMC формата : Без точки перехода
Параметр матрицы формата : Default (MPEG)
Идентификатор кодека : XVID
Идентификатор кодека/Подсказка : XviD
Продолжительность : 1 ч. 20 м.
Битрейт : 2040 Кбит/сек
Ширина : 720 пикселей
Высота : 304 пикселя
Соотношение сторон : 2,35:1
Частота кадров : 25,000 кадров/сек
Цветовое пространство : YUV
Субдискретизация насыщенности : 4:2:0
Битовая глубина : 8 бит
Тип развёртки : Прогрессивная
Метод сжатия : С потерями
Бит/(Пиксели*Кадры) : 0.373
Размер потока : 1,15 Гбайт (84%)
Библиотека кодирования : XviD 1.2.1 (UTC 2008-12-04)

Аудио
Идентификатор : 1
Формат : AC-3
Формат/Информация : Audio Coding 3
Идентификатор кодека : 2000
Продолжительность : 1 ч. 20 м.
Вид битрейта : Постоянный
Битрейт : 384 Кбит/сек
Каналы : 6 каналов
Расположение каналов : Front: L C R, Side: L R, LFE
Частота : 48,0 КГц
Частота кадров : 31,250 кадров/сек (1536 SPF)
Битовая глубина : 16 бит
Метод сжатия : С потерями
Размер потока : 221 Мбайт (16%)
Выравнивание : Разделение по промежуткам
Продолжительность промежутка : 40 мс. (1,00 видеокадр)
Время предзагрузки промежутка : 500 мс.
ServiceKind/String : Complete Main


Трекер:  [ 30-Янв-2018 12:54 ]

  

Скачать .torrent

Размер .torrent файла 15 KB


Размер: 1.45 GB
Хэш (hash) релиза: e6dacd08b35ddc36ab756dcc06527736e6bbee26
Подписка на обновления:

Торренты, похожие на Новогодний переполох скачать торрент

Форум Название Автор Размер S L Добавлен
Российские фильмы 2016-2018 (Новинки русского кино) ·· Новогодний переполох (Кирилл Папакуль) [2017, Россия, комедия, семейный, WEB-DLRip] iTunes Galfimbul 734185472700 MB 0 0 1517322034

17:20

30-Янв-18

Российские фильмы до 2016 ·· Новогодний переполох (Кирилл Папакуль) [2017, Россия, комедия, семейный, WEB-DL 1080p] Original Rus Galfimbul 30654875722.85 GB 0 0 1517310825

14:13

30-Янв-18

Российские фильмы 2016-2018 (Новинки русского кино) ·· Новогодний переполох (Кирилл Папакуль) [2017, комедия, семейный, WEB-DL 720p] Оригинал [iTunes] Galfimbul 26487065282.47 GB 0 0 1517305940

12:52

30-Янв-18

Российские фильмы до 2016 ·· Новогодний переполох (Кирилл Папакуль) [2017, комедия, семейный, WEB-DLRip] Galfimbul 15619727361.45 GB 0 0 1517272037

03:27

30-Янв-18

Российские фильмы 2016-2018 (Новинки русского кино) ·· Новогодний переполох (Кирилл Папакуль) [2017, комедия, семейный, WEB-DL 1080p] iTunes Galfimbul 30654875722.85 GB 0 0 1517270470

03:01

30-Янв-18

Российские фильмы 2016-2018 (Новинки русского кино) ·· Новогодний переполох (Кирилл Папакуль) [2017 г., комедия, семейный, CAMRip] Galfimbul 14677114881.37 GB 0 0 1513426459

15:14

16-Дек-17

Российские сериалы ·· Новогодний переполох / Серии: 1-4 из 4 (Феликс Герчиков) [2012, Комедия, WEBRip 1080p] Galfimbul 61957649715.77 GB 0 0 1421165131

19:05

13-Янв-15

Российские сериалы ·· Новогодний переполох / Серии: 1-4 из 4 (Феликс Герчиков) [2012, Комедия, WEBRip 720p] Galfimbul 47025517784.38 GB 0 0 1420898534

17:02

10-Янв-15

Российские сериалы ·· Новогодний переполох / Серии: 1-4 из 4 (Феликс Герчиков) [2012, Комедия, WEBRip-AVC] Galfimbul 32301360993.01 GB 0 0 1420459355

15:02

5-Янв-15

Российские сериалы ·· Новогодний переполох / Серии: 4 из 4 (Феликс Герчиков) [2012, комедия, 2 х DVD5] Galfimbul 76745973767.15 GB 0 0 1361696612

12:03

24-Фев-13

Российские сериалы ·· Новогодний переполох / Серии: 1-4 из 4 (Феликс Герчиков) [2012, Комедия, DVDRip] Galfimbul 32381480963.02 GB 0 0 1361696503

12:01

24-Фев-13

Российские сериалы ·· Новогодний переполох / Серии: 1-4 из 4 (Феликс Герчиков) [2012, комедия, DVD9] R5 Original Rus Galfimbul 76364451847.11 GB 0 0 1361696419

12:00

24-Фев-13

Еще никто не оставлял запись к записи скачать торрент Новогодний переполох . Будь первым!

!Обратная связь