Скачать порно через торрент [VRBangers.com] Nicole Aniston UnionPeer.org бесплатно онлайн HD качество

Скачать новое порно 2015, 2014 новинки через торрент UnionPeer.org

Порно торрент бесплатно ЮнионПир.орг

Статистика раздачи
Размер:  4.14 GB   |    Зарегистрирован:  8 месяцев   |    .torrent скачан:  203 раза   |   
Раздают:  1  
   
загрузка...
 
Автор Сообщение

Galfimbul

avatar Galfimbul


Имя актрисы: Nicole Aniston
Название ролика: Your Personal Trainer
Сайт: VRBangers.com

Год производства: 2017 г.
Продолжительность: 31:37

Описание: Nicole Aniston is a pretty blonde pornstar who is also quite fit. In fact, she is so fit that she has taken up a second career as a personal trainer. She wants to share her fitness with the world and she knows that being a personal trainer is the best way to do that. As a personal trainer, Nicole has no problems getting up close and personal with her clients. Just like you will be seeing her up close and personal in a VR porn video. It’s so easy to navigate around the video by turning your head or zooming in to get a good view of what you want to see. Well, Nicole just started working with a new client. He is pretty cute and she likes him. He came to her because his doctor recommended he start to work out, and Nicole has an unconventional idea for a workout. After the real workout, in which she pushed him too hard, Nicole wants to do some recovery before ramping things up again. She provides you, the client with a full body rub down. She starts out innocently enough, rubbing your tender muscles, but soon she discovers a boner so she pops it out and then starts to pleasure your dick. She feels you’re still tense so she hops on top to help you relax even more. This isn’t a service she offers to all of her clients – just the ones she likes. Nicole gives you a good show and makes sure that you are properly pleasured and recovered from your hard work out. You pop a load of jizz after a good long while and Nicole looks so sweet as she smiles up at you while you cum. This girl is an angel and she looks amazing in vrbangers virtual reality video!

Тип HD видео: 1920p
Тип устройства: Samsung Gear VR
Тип 3D: SideBySide
Формат видео: MP4
Видео: HVC1 3840x1920 60fps 18414kbps
Аудио: AAC 48000Hz stereo 317kbps
General
Complete name : VRBANGERS_your_personal_trainer_UHD_180x180_3dh.mp4
Format : MPEG-4
Format profile : Base Media / Version 2
Codec ID : mp42
File size : 4.14 GiB
Duration : 31mn 36s
Overall bit rate mode : Variable
Overall bit rate : 18.7 Mbps
Encoded date : UTC 2017-09-05 17:39:29
Tagged date : UTC 2017-09-05 17:40:16
©TIM : 00:00:00:00
©TSC : 60
©TSZ : 1

Video
ID : 1
Format : HEVC
Format/Info : High Efficiency Video Coding
Codec ID : hvc1
Codec ID/Info : High Efficiency Video Coding
Duration : 31mn 36s
Bit rate : 18.4 Mbps
Width : 3 840 pixels
Height : 1 920 pixels
Display aspect ratio : 2.000
Frame rate mode : Constant
Frame rate : 60.000 fps
Bits/(Pixel*Frame) : 0.042
Stream size : 4.07 GiB (98%)
Language : English
Encoded date : UTC 2017-09-05 17:39:29
Tagged date : UTC 2017-09-05 17:39:29

Audio
ID : 2
Format : AAC
Format/Info : Advanced Audio Codec
Format profile : LC
Codec ID : 40
Duration : 31mn 36s
Source duration : 31mn 36s
Bit rate mode : Variable
Bit rate : 317 Kbps
Maximum bit rate : 432 Kbps
Channel(s) : 2 channels
Channel positions : Front: L R
Sampling rate : 48.0 KHz
Compression mode : Lossy
Stream size : 71.8 MiB (2%)
Source stream size : 71.8 MiB (2%)
Language : English
Encoded date : UTC 2017-09-05 17:39:29
Tagged date : UTC 2017-09-05 17:39:29


Трекер:  [ 25-Мар-2018 12:26 ]

  

Скачать .torrent

Размер .torrent файла 11 KB


Размер: 4.14 GB
Хэш (hash) релиза: 4f67dfdcf9864605db1e925bd6157559ed24fc4f

Торренты, похожие на [VRBangers.com] Nicole Aniston скачать торрент

Форум Название Автор Размер S L Добавлен
Порноролики в 3D и Virtual Reality (VR) ·· [VRBangers.com] Nicole Aniston (Your Personal Trainer) [2017 г., Big Dick, Big Tits, Blonde, Blowjob, Cowgirl, Deepthroat, MILF, Shaved Pussy, SideBySide, 1440p] [Samsung Gear VR] Galfimbul 22651071162.11 GB 0 0 1521968769

12:06

25-Мар-18

Сайтрипы 2017 ·· [VRbangers.com] Nicole Aniston (Your Personal Trainer) [2017 г., MILF, POV, Blowjob, Deep Throat, Orgasm, All sex, 4K, 3D, Oculus 360°, Virtual Reality, VR] Galfimbul 56866235795.3 GB 0 0 1505424264

00:24

15-Сен-17

Еще никто не оставлял запись к записи скачать торрент [VRBangers.com] Nicole Aniston . Будь первым!

!Обратная связь