Скачать порно через торрент [BaDoinkVR.com] Penny Pax - In For A Penny, In For a Pound UnionPeer.org бесплатно онлайн HD качество

Скачать новое порно 2015, 2014 новинки через торрент UnionPeer.org

Порно торрент бесплатно ЮнионПир.орг

Статистика раздачи
Размер:  3.66 GB   |    Зарегистрирован:  8 месяцев   |    .torrent скачан:  297 раз   |   
Раздают:  1  
   
загрузка...
 
Автор Сообщение

Galfimbul

avatar Galfimbul


Penny Pax - In For A Penny, In For a Pound



Имя актрисы: Penny Pax
Название ролика: In For A Penny, In For a Pound
Жанр: Big Tits, Blow Job, All sex, Virtual Reality, VR
Сайт: BaDoinkVR.com

Год производства: 2017 г.
Продолжительность: 00:35:44
Описание: Your son is getting married to Penny Pax. You will never understand how he bagged a busty redhead like that, he''s the kind of guy that works out 6 times a week, shaves his chest, and plays by the book 24/7 - he''s a bit of a pussy. You on the other hand, regularly skip work, smoke cigars, get wasted and slam loose women. When Penny comes to you before her wedding night and complains about issues in the bedroom, she confesses her DILF fantasy to you. She hasn''t felt a hard cock inside her for a while now, so she''s keen to get every inch of you inside her before she ties the knot. You''re going to hell anyway, go for it.
General
Complete name : D:\BaDoinkVR_In_For_A_Penny_In_For_A_Pound_samsung_180_180x180_3dh_LR.mp4
Format : MPEG-4
Format profile : Base Media / Version 2
Codec ID : mp42 (isom/iso2/avc1/mp41)
File size : 3.66 GiB
Duration : 35mn 44s
Overall bit rate mode : Variable
Overall bit rate : 14.7 Mbps
Encoded date : UTC 2017-10-21 02:02:18
Tagged date : UTC 2017-10-21 02:02:18
Writing application : HandBrake 0.10.2 2015061100

Video
ID : 1
Format : AVC
Format/Info : Advanced Video Codec
Format profile : Main@L4
Format settings, CABAC : Yes
Format settings, ReFrames : 2 frames
Codec ID : avc1
Codec ID/Info : Advanced Video Coding
Duration : 35mn 44s
Bit rate : 14.6 Mbps
Width : 2 880 pixels
Height : 1 440 pixels
Display aspect ratio : 2.000
Frame rate mode : Variable
Frame rate : 59.940 (60000/1001) fps
Minimum frame rate : 59.920 fps
Maximum frame rate : 59.960 fps
Color space : YUV
Chroma subsampling : 4:2:0
Bit depth : 8 bits
Scan type : Progressive
Bits/(Pixel*Frame) : 0.059
Stream size : 3.61 GiB (99%)
Writing library : x264 core 142 r2479 dd79a61
Encoding settings : cabac=1 / ref=2 / deblock=1:0:0 / analyse=0x1:0x111 / me=umh / subme=8 / psy=1 / psy_rd=1.00:0.00 / mixed_ref=1 / me_range=16 / chroma_me=1 / trellis=1 / 8x8dct=0 / cqm=0 / deadzone=21,11 / fast_pskip=1 / chroma_qp_offset=-2 / threads=12 / lookahead_threads=2 / sliced_threads=0 / nr=0 / decimate=1 / interlaced=0 / bluray_compat=0 / constrained_intra=0 / bframes=3 / b_pyramid=0 / b_adapt=2 / b_bias=0 / direct=3 / weightb=1 / open_gop=0 / weightp=2 / keyint=600 / keyint_min=60 / scenecut=40 / intra_refresh=0 / rc_lookahead=50 / rc=abr / mbtree=1 / bitrate=14600 / ratetol=1.0 / qcomp=0.60 / qpmin=0 / qpmax=69 / qpstep=4 / vbv_maxrate=20000 / vbv_bufsize=25000 / nal_hrd=none / filler=0 / ip_ratio=1.40 / aq=1:1.00
Encoded date : UTC 2017-10-21 02:02:18
Tagged date : UTC 2017-10-21 02:02:18
Color range : Limited
Color primaries : BT.709
Transfer characteristics : BT.709
Matrix coefficients : BT.709

Audio
ID : 2
Format : AAC
Format/Info : Advanced Audio Codec
Format profile : LC
Codec ID : 40
Duration : 35mn 44s
Bit rate mode : Variable
Bit rate : 177 Kbps
Channel(s) : 2 channels
Channel positions : Front: L R
Sampling rate : 48.0 KHz
Frame rate : 46.875 fps (1024 spf)
Compression mode : Lossy
Stream size : 45.3 MiB (1%)
Title : Stereo / Stereo
Language : English
Default : Yes
Alternate group : 1
Encoded date : UTC 2017-10-21 02:02:18
Tagged date : UTC 2017-10-21 02:02:18
Тип HD видео: 1440p
Тип устройства (для видео VR): Samsung Gear VR
Тип 3D (для видео в 3D): SideBySide
Формат видео: MP4
Видео: AVC, 2880x1440 (2.000), 59.940 fps, 14.6 Mbps (0.059 bit/pixel)
Аудио: AAC LC, 48.0 KHz, 2 ch, 177 Kbps, VBR (English)

Трекер:  [ 05-Апр-2018 21:26 ]

  

Скачать .torrent

Размер .torrent файла 19 KB


Размер: 3.66 GB
Хэш (hash) релиза: 9b4d7255f6d58c1b6c6aca2d4abf30f7f9bf6586

Еще никто не оставлял запись к записи скачать торрент [BaDoinkVR.com] Penny Pax - In For A Penny, In For a Pound . Будь первым!

!Обратная связь