Скачать через торрент Танки Фильм бесплатно в хорошем качестве torrent

Скачивайте на UnionPeer.org фильмы через торрент без регистрации. Новинки кино в хорошем качестве через торрент. На UnionPeer.org можно скачать через торрент фильмы 2014 и 2015 годов. Самые новые фильмы.

Скачать торрент Танки бесплатно через .torrent фильм мультфильм сериал

Статистика раздачи
Размер:  7.9 GB   |    Зарегистрирован:  5 месяцев   |    .torrent скачан:  90 раз   |   
Раздают:  1  
   
загрузка...
 
Автор Сообщение

Galfimbul

avatar Galfimbul


Танки



[b]Год выхода:
2018
Жанр: Приключения, история, военный
Страна: Россия
Перевод: Не требуется
Продолжительность: 01:33:05
Режиссер: Ким Дружинин
В ролях: Андрей Мерзликин, Аглая Тарасова, Сергей Стукалов, Антон Филипенко, Алексей Овсянников, Дмитрий Поднозов, Георги Майсурадзе, Владимир Верёвочкин, Дмитрий Цуцкин, Андрей Дежонов и др.

О фильме: На пороге войны с фашистской Германией инженер Михаил Кошкин разрабатывает прототип нового инновационного танка Т-34. Чтобы доказать уникальность боевой машины, Кошкин и его команда отправляются в Москву на танках своим ходом. Но вскоре пробег превращается в непредсказуемую гонку, где бездорожье лишь меньшее из зол… Пройдя череду опасных приключений и благодаря безупречным техническим и боевым качествам новых танков, героям удается одержать верх над преследователями и доказать превосходство Т-34.



Файл
Качество: BDRip 1080p
Видео: MPEG-4 AVC, 1920x858, 10000 kbps, 24,000 fps
Звук#1: русский, DTS 5.1, 48 kHz, 1509 kbps | Лицензия
Звук#2: русский, AC3 5.1, 48 kHz, 640 kbps | Лицензия
Субтитры: нет
General
Уникальный идентификатор : 180543234685924650905588951287728681489 (0x87D35CB8BBE02F918325AFD3CDD7B211)
Полное имя : F:TorrentTankiBDRip1080p.mkv
Формат : Matroska
Версия формата : Version 4 / Version 2
Размер файла : 7.90 GiB
Продолжительность : 1 h 33 min
Общий поток : 12.1 Mb/s
Дата кодирования : UTC 2018-07-15 09:38:37
Программа кодирования : mkvmerge v9.5.0 ('Quiet Fire') 64bit
Библиотека кодирования : libebml v1.3.4 + libmatroska v1.4.5

Video
Идентификатор : 1
Формат : AVC
Формат/Информация : Advanced Video Codec
Профиль формата : High@L4.1
Настройки формата : CABAC / 5 Ref Frames
Параметр CABAC формата : Yes
Параметр RefFrames формата : 5 frames
Идентификатор кодека : V_MPEG4/ISO/AVC
Продолжительность : 1 h 33 min
Битрейт : 10 000 kb/s
Ширина : 1 920 pixels
Высота : 858 pixels
Соотношение сторон : 2.25:1
Режим частоты кадров : Constant
Частота кадров : 24.000 FPS
Цветовое пространство : YUV
Субдискретизация насыщенности : 4:2:0
Битовая глубина : 8 bits
Тип развёртки : Progressive
Бит/(Пиксели*Кадры) : 0.253
Размер потока : 6.50 GiB (82%)
Библиотека кодирования : x264 core 155 r2901M 7d0ff22
Настройки программы : cabac=1 / ref=5 / deblock=1:-3:-3 / analyse=0x3:0x113 / me=umh / subme=11 / psy=1 / psy_rd=1.00:0.00 / mixed_ref=1 / me_range=48 / chroma_me=1 / trellis=2 / 8x8dct=1 / cqm=0 / deadzone=21,11 / fast_pskip=0 / chroma_qp_offset=-2 / threads=9 / lookahead_threads=2 / sliced_threads=0 / nr=0 / decimate=0 / interlaced=0 / bluray_compat=0 / constrained_intra=0 / bframes=10 / b_pyramid=2 / b_adapt=2 / b_bias=0 / direct=3 / weightb=1 / open_gop=0 / weightp=2 / keyint=240 / keyint_min=24 / scenecut=40 / intra_refresh=0 / rc_lookahead=120 / rc=2pass / mbtree=0 / bitrate=10000 / ratetol=1.0 / qcomp=0.70 / qpmin=0 / qpmax=69 / qpstep=4 / cplxblur=20.0 / qblur=0.5 / vbv_maxrate=50000 / vbv_bufsize=62500 / nal_hrd=none / filler=0 / ip_ratio=1.40 / pb_ratio=1.30 / aq=3:0.80
Default : Yes
Forced : No
Цветовой диапазон : Limited
Основные цвета : BT.709
Характеристики трансфера : BT.709
Коэффициенты матрицы : BT.709

Audio #1
Идентификатор : 2
Формат : DTS
Формат/Информация : Digital Theater Systems
Идентификатор кодека : A_DTS
Продолжительность : 1 h 33 min
Вид битрейта : Constant
Битрейт : 1 509 kb/s
Каналы : 6 channels
Расположение каналов : Front: L C R, Side: L R, LFE
Частота : 48.0 kHz
Частота кадров : 93.750 FPS (512 SPF)
Битовая глубина : 24 bits
Метод сжатия : Lossy
Размер потока : 1 005 MiB (12%)
Язык : Russian
Default : Yes
Forced : No

Audio #2
Идентификатор : 3
Формат : AC-3
Формат/Информация : Audio Coding 3
Идентификатор кодека : A_AC3
Продолжительность : 1 h 33 min
Вид битрейта : Constant
Битрейт : 640 kb/s
Каналы : 6 channels
Расположение каналов : Front: L C R, Side: L R, LFE
Частота : 48.0 kHz
Частота кадров : 31.250 FPS (1536 SPF)
Битовая глубина : 16 bits
Метод сжатия : Lossy
Размер потока : 426 MiB (5%)
Язык : Russian
Default : No
Forced : No

Menu
00:00:00.000 : en:Chapter 1
00:01:13.416 : en:Chapter 2
00:10:40.416 : en:Chapter 3
00:20:29.583 : en:Chapter 4
00:32:30.208 : en:Chapter 5
00:44:52.791 : en:Chapter 6
00:57:32.791 : en:Chapter 7
01:07:56.666 : en:Chapter 8
01:20:44.583 : en:Chapter 9
Источник http://BlaTor.org

Трекер:  [ 15-Июл-2018 16:00 ]

  

Скачать .torrent

Размер .torrent файла 20 KB


Размер: 7.9 GB
Хэш (hash) релиза: 1d79b2d191fb5b60bca5c4bad0e299b0e2cfdcee
Подписка на обновления:

Торренты, похожие на Танки скачать торрент

Форум Название Автор Размер S L Добавлен
Мультфильмы до 2016 ·· Царевич и тайна волшебной лягушки / Царевич та таємниця чарівної жабки (Наталия Скрябина) [2010, Украина, мультфильм, WEBRip] Galfimbul 4994767048 MB 0 0 1523626235

16:30

13-Апр-18

Спорт ·· Х Всемирные игры 2017 во Вроцлаве / Муай тай / Мужчины / Финалы / UA:Перший [30/07/2017, Муай тай, DVBRip, XviD, UA] Galfimbul 913322046871 MB 0 0 1501480062

08:47

31-Июл-17

Развлекательные телепередачи и шоу ·· Лесь Подерв'янський (Подерев'янський / Подеревянский) "Блєск та ніщєта підарасів" [2006, сатира / юмор, DVDRip] Galfimbul 732001514698 MB 0 0 1499896065

00:47

13-Июл-17

Документальные фильмы и телепередачи ·· Танки Второй мировой войны (2 серии из 2) (Андрей Кулясов) [2013, Документальный, танки, вооружение, история, WEBRip-AVC (576p)] Galfimbul 15516965121.45 GB 0 0 1497032168

21:16

9-Июн-17

Документальные фильмы и телепередачи ·· Танки: гонка технологий [2009, Документальный, танки, война, история, TVRip] Galfimbul 319498240305 MB 0 0 1430467427

11:03

1-Май-15

Документальные фильмы и телепередачи ·· Танки Второй Мировой войны (2 серии из 2) (Андрей Кулясов) [2013, Документальный, история, танки, DVD5] Galfimbul 42812088323.99 GB 0 0 1424615823

17:37

22-Фев-15

Документальные фильмы и телепередачи ·· Танки Второй Мировой войны (2 серии из 2) (Андрей Кулясов) [2013, Документальный, история, танки, вооружение, DVDRip] Galfimbul 11513630721.07 GB 0 0 1424433962

15:06

20-Фев-15

Документальные фильмы и телепередачи ·· Самые необычные танки в истории (3 серии из 3) [2014, Документальный, вооружение,танки, история, HDTVRip] Galfimbul 561270784535 MB 0 0 1421179977

23:12

13-Янв-15

Документальные фильмы и телепередачи ·· Самые необычные танки в истории (3 серии из 3) [2014, Документальный, вооружение,танки, история, HDTVRip 720p] Galfimbul 756674474722 MB 0 0 1421179940

23:12

13-Янв-15

Зарубежные фильмы до 2016 ·· Секреты Тай Чи / Мастер Тай Чи / Secret of Tai Chi / Tai Chi Chun / Revenge of the Tai-Chi Master / Tai chi chuan (Ци Исюн / Chik Ngai-Hung) [1985, Гонконг, боевые искусства, VHSRip] AVO (Сергей Кузнецов) Galfimbul 14669701121.37 GB 0 0 1376857811

23:30

18-Авг-13

Мультфильмы 2016-2018 (Новинки мультфильмов) ·%· Вилли и крутые тачки / Wheely (2018) WEB-DLRip 720p | D Galfimbul 29137630402.71 GB 0 0 1538209323

11:22

29-Сен-18

Российские фильмы 2016-2018 (Новинки русского кино) ·%· Танки (2018) BDRip-HEVC 1080p от ХиМиК Galfimbul 68955120826.42 GB 0 0 1532888537

21:22

29-Июл-18

Российские фильмы до 2016 ·%· Танки (Ким Дружинин) [2018, Россия, приключения, история, военный, BDRip 720p] + Original Rus Galfimbul 42124976853.92 GB 0 0 1532799040

20:30

28-Июл-18

Российские фильмы 2016-2018 (Новинки русского кино) ·%· Танки (2018) BDRip-AVC от OlLanDGroup | Лицензия Galfimbul 15671671441.46 GB 0 0 1532148022

07:40

21-Июл-18

Российские фильмы 2016-2018 (Новинки русского кино) ·%· Танки (2018) BDRip от ExKinoRay | Лицензия Galfimbul 15687486781.46 GB 0 0 1532089847

15:30

20-Июл-18

Российские фильмы 2016-2018 (Новинки русского кино) ·%· Танки (2018) BDRemux 1080p | Лицензия Galfimbul 2268142012321.12 GB 0 0 1532025624

21:40

19-Июл-18

Российские фильмы 2016-2018 (Новинки русского кино) ·%· Танки (2018) Blu-ray 1080p | Лицензия Galfimbul 2489661371123.19 GB 0 0 1531956028

02:20

19-Июл-18

Российские фильмы до 2016 ·%· Танки (Ким Дружинин) [2018, Россия, приключения, история, военный, HDRip] Galfimbul 15648358401.46 GB 0 0 1531929247

18:54

18-Июл-18

Российские фильмы 2016-2018 (Новинки русского кино) ·%· Танки (2018) BDRip 720p | Лицензия Galfimbul 53415510174.97 GB 0 0 1531659630

16:00

15-Июл-18

Еще никто не оставлял запись к записи скачать торрент Танки . Будь первым!

!Обратная связь