Скачать через торрент Фото на память Фильм бесплатно в хорошем качестве torrent

Скачивайте на UnionPeer.org фильмы через торрент без регистрации. Новинки кино в хорошем качестве через торрент. На UnionPeer.org можно скачать через торрент фильмы 2014 и 2015 годов. Самые новые фильмы.

Скачать торрент Фото на память бесплатно через .torrent фильм мультфильм сериал

Статистика раздачи
Размер:  1.33 GB   |    Зарегистрирован:  4 месяца 27 дней   |    .torrent скачан:  103 раза   |   
Раздают:  1  
   
загрузка...
 
Автор Сообщение

Galfimbul

avatar Galfimbul


Фото на память



[b]Год выхода:
2018
Жанр: Триллер, ужасы
Страна: Россия
Перевод: Не требуется
Продолжительность: 01:13:41
Режиссер: Антон Зенкович
В ролях: Ирина Темичева, Степан Юрпалов, Анастасия Уколова, Санжар Мади, Гарик Петросян, Егор Харламов, Софья Зайка и др.

О фильме: Неожиданная авария заставляет компанию молодых людей свернуть в старый дом, где, к своему удивлению, среди множества жутких фотографий, они находят снимок их разбитого автомобиля. К тому же в одной из комнат обнаруживается старинный фотоаппарат, на который возможно и сделаны страшные снимки. Молодые люди оказываются втянуты в несущую смерть, кровавую карусель… Убивает ли фотоаппарат? Случайны ли происходящие с ними события? Всё это предстоит выяснить оказавшимся в безвыходной ситуации героям.



Файл
Формат: AVI
Качество: WEB-DLRip
Видео: Xvid, 720x304, ~2200 kbps, 24,000 fps
Звук: русский, AC3 5.1, 48 kHz, 384 kbps | iTunes
Субтитры: нет
General
Полное имя : F:TorrentFotoNaPamyatAVI.avi
Формат : AVI
Формат/Информация : Audio Video Interleave
Размер файла : 1.33 GiB
Продолжительность : 1 h 13 min
Общий поток : 2 591 kb/s
Библиотека кодирования : VirtualDub build 35491/release

Video
Идентификатор : 0
Формат : MPEG-4 Visual
Профиль формата : Advanced Simple@L5
Настройки формата : BVOP2 / Custom Matrix
Параметр BVOP формата : 2
Параметр QPel формата : No
Параметр GMC формата : No warppoints
Параметр матрицы формата : Custom
Идентификатор кодека : XVID
Идентификатор кодека/Подсказка : XviD
Продолжительность : 1 h 13 min
Битрейт : 2 198 kb/s
Ширина : 720 pixels
Высота : 304 pixels
Соотношение сторон : 2.35:1
Частота кадров : 24.000 FPS
Цветовое пространство : YUV
Субдискретизация насыщенности : 4:2:0
Битовая глубина : 8 bits
Тип развёртки : Progressive
Метод сжатия : Lossy
Бит/(Пиксели*Кадры) : 0.418
Размер потока : 1.13 GiB (85%)
Библиотека кодирования : XviD 67

Audio
Идентификатор : 1
Формат : AC-3
Формат/Информация : Audio Coding 3
Идентификатор кодека : 2000
Продолжительность : 1 h 13 min
Вид битрейта : Constant
Битрейт : 384 kb/s
Каналы : 6 channels
Расположение каналов : Front: L C R, Side: L R, LFE
Частота : 48.0 kHz
Частота кадров : 31.250 FPS (1536 SPF)
Битовая глубина : 16 bits
Метод сжатия : Lossy
Размер потока : 202 MiB (15%)
Выравнивание : Aligned on interleaves
Продолжительность промежутка : 42 ms (1.00 video frame)
Время предзагрузки промежутка : 512 ms
Источник http://BlaTor.org

Трекер:  [ 18-Июл-2018 18:00 ]

  

Скачать .torrent

Размер .torrent файла 14 KB


Размер: 1.33 GB
Хэш (hash) релиза: cd9b37433742e62faca22e332680deacbcd601fa
Подписка на обновления:

Торренты, похожие на Фото на память скачать торрент

Форум Название Автор Размер S L Добавлен
Российские фильмы 2016-2018 (Новинки русского кино) ·%· Фото на память (2018) WEB-DLRip от Generalfilm | КПК | iTunes Galfimbul 293693777280 MB 0 0 1532270467

17:41

22-Июл-18

Российские фильмы 2016-2018 (Новинки русского кино) ·%· Фото на память (2018) WEB-DLRip-AVC от OlLanDGroup | iTunes Galfimbul 15667184561.46 GB 0 0 1532253649

13:00

22-Июл-18

Российские фильмы 2016-2018 (Новинки русского кино) ·%· Фото на память (2018) WEB-DLRip-AVC от ExKinoRay Galfimbul 782101673746 MB 0 0 1532023811

21:10

19-Июл-18

Российские фильмы до 2016 ·%· Фото на память (Антон Зенкович) [2018, Россия, триллер, ужасы, WEB-DL 1080p] Original Rus Galfimbul 27393966612.55 GB 0 0 1531944080

23:01

18-Июл-18

Российские фильмы до 2016 ·%· Фото на память (Антон Зенкович) [2018, триллер, ужасы, WEB-DLRip] Galfimbul 14562959361.36 GB 0 0 1531934648

20:24

18-Июл-18

Российские фильмы 2016-2018 (Новинки русского кино) ·%· Фото на память (2018) WEB-DLRip от GeneralFilm | iTunes Galfimbul 779694080744 MB 0 0 1531933238

20:00

18-Июл-18

Российские фильмы 2016-2018 (Новинки русского кино) ·%· Фото на память (2018) WEB-DL 1080p | iTunes Galfimbul 27393966612.55 GB 0 0 1531926052

18:00

18-Июл-18

Российские фильмы до 2016 ·· Фото на недобрую память (Алина Чеботарёва) [2016, криминальный фильм, мелодрама, SATRip] Galfimbul 14697062401.37 GB 0 0 1474038493

18:08

16-Сен-16

Еще никто не оставлял запись к записи скачать торрент Фото на память . Будь первым!

!Обратная связь