Скачать через торрент Фото на память Фильм бесплатно в хорошем качестве torrent

Скачивайте на UnionPeer.org фильмы через торрент без регистрации. Новинки кино в хорошем качестве через торрент. На UnionPeer.org можно скачать через торрент фильмы 2014 и 2015 годов. Самые новые фильмы.

Скачать торрент Фото на память бесплатно через .torrent фильм мультфильм сериал

Статистика раздачи
Размер:  746 MB   |    Зарегистрирован:  4 месяца 30 дней   |    .torrent скачан:  83 раза   |   
Раздают:  1  
   
загрузка...
 
Автор Сообщение

Galfimbul

avatar Galfimbul


Название: Фото на память
Год выхода: 2018
Жанр: Триллер, ужасы
Режиссер: Антон Зенкович
В ролях: Ирина Темичева, Степан Юрпалов, Анастасия Уколова, Санжар Мади, Гарик Петросян, Егор Харламов, Софья Зайка и др.

О фильме :
Неожиданная авария заставляет компанию молодых людей свернуть в старый дом, где, к своему удивлению, среди множества жутких фотографий, они находят снимок их разбитого автомобиля. К тому же в одной из комнат обнаруживается старинный фотоаппарат, на который возможно и сделаны страшные снимки. Молодые люди оказываются втянуты в несущую смерть, кровавую карусель… Убивает ли фотоаппарат? Случайны ли происходящие с ними события? Всё это предстоит выяснить оказавшимся в безвыходной ситуации героям.



Страна: Россия
Студия: Кинокомпания «Большое кино», «RSS», Fresh Film
Продолжительность: 01:13:41
Язык: Русский | iTunes

Файл
Формат: MKV
Качество: WEB-DLRip-AVC
Видео: MPEG-4 AVC, 800x336, ~ 1338 Кбит/с
Аудио: AAC-HE, 2 ch, ~ 76 Кбит/с
Субтитры: Нет
Общее
Уникальный идентификатор : 243083340361509981344741243788884736181 (0xB6E025FEBF65F12FA00C9BDAC6F078B5)
Полное имя : D:MOVIESFotoNaPamyat.2018.ExKinoRay.mkv
Формат : Matroska
Версия формата : Version 4 / Version 2
Размер файла : 746 Мбайт
Продолжительность : 1 ч. 13 м.
Общий поток : 1415 Кбит/сек
Дата кодирования : UTC 2018-07-19 17:54:55
Программа кодирования : mkvmerge v15.0.0 ('Duel with the Devil') 64-bit
Библиотека кодирования : libebml v1.3.5 + libmatroska v1.4.5

Видео
Идентификатор : 1
Формат : AVC
Формат/Информация : Advanced Video Codec
Профиль формата : High@L4.1
Параметр CABAC формата : Да
Параметр RefFrames формата : 10 кадров
Идентификатор кодека : V_MPEG4/ISO/AVC
Продолжительность : 1 ч. 13 м.
Битрейт : 1338 Кбит/сек
Ширина : 800 пикселей
Высота : 336 пикселей
Соотношение сторон : 2,40:1
Режим частоты кадров : Постоянный
Частота кадров : 24,000 кадра/сек
Цветовое пространство : YUV
Субдискретизация насыщенности : 4:2:0
Битовая глубина : 8 бит
Тип развёртки : Прогрессивная
Бит/(Пиксели*Кадры) : 0.207
Размер потока : 705 Мбайт (95%)
Библиотека кодирования : x264 core 152 r2851kMod ba24899
Настройки программы : cabac=1 / ref=10 / deblock=1:-3:-3 / analyse=0x3:0x133 / me=umh / subme=11 / psy=1 / fade_compensate=0.00 / psy_rd=1.00:0.17 / mixed_ref=1 / me_range=32 / chroma_me=1 / trellis=2 / 8x8dct=1 / cqm=0 / deadzone=21,11 / fast_pskip=0 / chroma_qp_offset=-3 / threads=6 / lookahead_threads=1 / sliced_threads=0 / nr=0 / decimate=0 / interlaced=0 / bluray_compat=0 / constrained_intra=0 / bframes=10 / b_pyramid=2 / b_adapt=2 / b_bias=0 / direct=3 / weightb=1 / open_gop=0 / weightp=2 / keyint=240 / keyint_min=23 / scenecut=40 / intra_refresh=0 / rc_lookahead=40 / rc=2pass / mbtree=1 / bitrate=1338 / ratetol=1.0 / qcomp=0.60 / qpmin=0 / qpmax=69 / qpstep=4 / cplxblur=20.0 / qblur=0.5 / vbv_maxrate=50000 / vbv_bufsize=62500 / nal_hrd=none / filler=0 / ip_ratio=1.40 / aq=3:1.00
Default : Да
Forced : Нет

Аудио
Идентификатор : 2
Формат : AAC
Формат/Информация : Advanced Audio Codec
Профиль формата : HE-AAC / LC
Идентификатор кодека : A_AAC
Продолжительность : 1 ч. 13 м.
Битрейт : 76,0 Кбит/сек
Каналы : 2 канала
Расположение каналов : Front: L R
Частота : 48,0 КГц / 24,0 КГц
Частота кадров : 23,438 кадра/сек (1024 SPF)
Метод сжатия : С потерями
Задержка видео : 31 мс.
Размер потока : 40,1 Мбайт (5%)
Default : Да
Forced : Нет

Меню
00:00:00.000 : en:Глава 1
00:06:41.666 : en:Глава 2
00:12:22.499 : en:Глава 3
00:17:54.832 : en:Глава 4
00:23:53.248 : en:Глава 5
00:30:54.873 : en:Глава 6
00:35:29.748 : en:Глава 7
00:40:30.123 : en:Глава 8
00:45:46.581 : en:Глава 9
00:50:56.247 : en:Глава 10
00:56:29.913 : en:Глава 11
01:01:13.163 : en:Глава 12
Источник http://BlaTor.org

Трекер:  [ 19-Июл-2018 21:10 ]

  

Скачать .torrent

Размер .torrent файла 15 KB


Размер: 746 MB
Хэш (hash) релиза: ad0471530230d36528a0b9268bff75d966adbe0d
Подписка на обновления:

Торренты, похожие на Фото на память скачать торрент

Форум Название Автор Размер S L Добавлен
Российские фильмы 2016-2018 (Новинки русского кино) ·%· Фото на память (2018) WEB-DLRip от Generalfilm | КПК | iTunes Galfimbul 293693777280 MB 0 0 1532270467

17:41

22-Июл-18

Российские фильмы 2016-2018 (Новинки русского кино) ·%· Фото на память (2018) WEB-DLRip-AVC от OlLanDGroup | iTunes Galfimbul 15667184561.46 GB 0 0 1532253649

13:00

22-Июл-18

Российские фильмы до 2016 ·%· Фото на память (Антон Зенкович) [2018, Россия, триллер, ужасы, WEB-DL 1080p] Original Rus Galfimbul 27393966612.55 GB 0 0 1531944080

23:01

18-Июл-18

Российские фильмы до 2016 ·%· Фото на память (Антон Зенкович) [2018, триллер, ужасы, WEB-DLRip] Galfimbul 14562959361.36 GB 0 0 1531934648

20:24

18-Июл-18

Российские фильмы 2016-2018 (Новинки русского кино) ·%· Фото на память (2018) WEB-DLRip от GeneralFilm | iTunes Galfimbul 779694080744 MB 0 0 1531933238

20:00

18-Июл-18

Российские фильмы 2016-2018 (Новинки русского кино) ·%· Фото на память (2018) WEB-DLRip | iTunes Galfimbul 14319080321.33 GB 0 0 1531926064

18:01

18-Июл-18

Российские фильмы 2016-2018 (Новинки русского кино) ·%· Фото на память (2018) WEB-DL 1080p | iTunes Galfimbul 27393966612.55 GB 0 0 1531926052

18:00

18-Июл-18

Российские фильмы до 2016 ·· Фото на недобрую память (Алина Чеботарёва) [2016, криминальный фильм, мелодрама, SATRip] Galfimbul 14697062401.37 GB 0 0 1474038493

18:08

16-Сен-16

Еще никто не оставлял запись к записи скачать торрент Фото на память . Будь первым!

!Обратная связь