Скачать через торрент Остров исправления Фильм бесплатно в хорошем качестве torrent

Скачивайте на UnionPeer.org фильмы через торрент без регистрации. Новинки кино в хорошем качестве через торрент. На UnionPeer.org можно скачать через торрент фильмы 2014 и 2015 годов. Самые новые фильмы.

Скачать торрент Остров исправления бесплатно через .torrent фильм мультфильм сериал

Статистика раздачи
Размер:  2.57 GB   |    Зарегистрирован:  4 месяца 19 дней   |    .torrent скачан:  119 раз   |   
Раздают:  1  
   
загрузка...
 
Автор Сообщение

Galfimbul

avatar Galfimbul


Остров исправления



[b]Год выхода:
2017
Жанр: Комедия, приключения
Режиссер: Анна Протоковило
В ролях: Алексей Маклаков, Сергей Новиков, Олег Майборода, Дмитрий Востриков, Нелли Гатина, Никита Краснояров, Владимир Худоян, Анастасия Алехина, Кристина Холдеева

О фильме: Выпускной — это самое светлое и трогательное событие. Так думают все, но только не наши герои. Самые продвинутые в 9 «А» — ди-джей Стас, блогерша Инесса-принцесса и их друзья считают, что на этом празднике должно быть намного веселей. Вместо грустной песни про школу, они включают «хайповый видос», снятый ими про директора школы, и срывают выпускной. Родители «активистов» принимают жесткое решение: отправить провинившихся на лето в деревню работать на фермерском хозяйстве. Мало того, что деревня расположена на острове посреди Оби, откуда так просто не сбежишь, еще и фермер Степаныч, которому им предстоит помогать — бывший военный. Это точно будут незабываемые каникулы…


Страна: Россия
Студия: Студия игрового кино "Краски"
Продолжительность: 01:27:53
Перевод: Не требуется

Файл
Кодек: MPEG-4 AVC
Качество: WEB-DL 1080p
Видео: 1920x856, 3990kb/s, 25.000fps
Звук: 192kb/s, 2ch, 48000kHz, AC3 [RUS] | Русский язык
Субтитры: Отсутствуют

РЕКЛАМА ОТСУТСТВУЕТ
Формат : Matroska
Версия формата : Version 4 / Version 2
Размер файла : 2,57 Гбайт
Продолжительность : 1 ч. 27 м.
Общий поток : 4184 Кбит/сек
Название фильма : Ostrov.ispravleniya.2017.WEB-DL.(1080p).Getty
Дата кодирования : UTC 2018-07-06 10:54:42
Программа кодирования : mkvmerge v7.8.0 ('River Man') 32bit built on Mar 27 2015 16:18:02
Библиотека кодирования : libebml v1.3.1 + libmatroska v1.4.2

Видео
Идентификатор : 1
Формат : AVC
Формат/Информация : Advanced Video Codec
Профиль формата : High@L4
Настройки формата : CABAC / 3 Ref Frames
Параметр CABAC формата : Да
Параметр RefFrames формата : 3 кадра
Идентификатор кодека : V_MPEG4/ISO/AVC
Продолжительность : 1 ч. 27 м.
Битрейт : 3990 Кбит/сек
Ширина : 1920 пикселей
Высота : 856 пикселей
Соотношение сторон : 2,25:1
Режим частоты кадров : Постоянный
Частота кадров : 25,000 кадров/сек
Цветовое пространство : YUV
Субдискретизация насыщенности : 4:2:0
Битовая глубина : 8 бит
Тип развёртки : Прогрессивная
Бит/(Пиксели*Кадры) : 0.097
Размер потока : 2,45 Гбайт (95%)
Default : Да
Forced : Нет

Аудио
Идентификатор : 2
Формат : AC-3
Формат/Информация : Audio Coding 3
Идентификатор кодека : A_AC3
Продолжительность : 1 ч. 27 м.
Вид битрейта : Постоянный
Битрейт : 192 Кбит/сек
Каналы : 2 канала
Расположение каналов : Front: L R
Частота : 48,0 КГц
Частота кадров : 31,250 кадров/сек (1536 SPF)
Битовая глубина : 16 бит
Метод сжатия : С потерями
Размер потока : 121 Мбайт (5%)
Default : Да
Forced : Нет
Источник http://BlaTor.org

Трекер:  [ 24-Июл-2018 08:20 ]

  

Скачать .torrent

Размер .torrent файла 13 KB


Размер: 2.57 GB
Хэш (hash) релиза: 5e867b0fdf39c98f68896ca10f22ed32087254c5
Подписка на обновления:

Еще никто не оставлял запись к записи скачать торрент Остров исправления . Будь первым!

!Обратная связь