Скачать через торрент Озеро героев Фильм бесплатно в хорошем качестве torrent

Скачивайте на UnionPeer.org фильмы через торрент без регистрации. Новинки кино в хорошем качестве через торрент. На UnionPeer.org можно скачать через торрент фильмы 2014 и 2015 годов. Самые новые фильмы.

Скачать торрент Озеро героев бесплатно через .torrent фильм мультфильм сериал

Статистика раздачи
Размер:  2.07 GB   |    Зарегистрирован:  4 месяца 22 дня   |    .torrent скачан:  83 раза   |   
Раздают:  1  
   
загрузка...
 
Автор Сообщение

Galfimbul

avatar Galfimbul


Озеро героев



[b]Год выхода:
2017
Жанр: Комедия, приключения
Режиссер: Анна Протоковило
В ролях:
Любава Яровая, Александр Чусовитин, Никита Бурячек, Олег Майборода, Нелли Гатина, Никита Краснояров, Дмитрий Востриков, Николай Кулебякин, Вадим Карионов, Олег Тупица

О фильме: Члены молодежной организации «Экологи Сибири» узнают, что на озере Байкал, в заповедном месте планируется строительство крупного отеля. Лидер экологов Егор призывает любой ценой помешать этим планам и встать на защиту природы. Ребята едут на Байкал и разбивают палаточный лагерь прямо на месте строительства. Начинается противостояние юных экологов и строительной корпорации, обе стороны настроены решительно. Ситуация накаляется еще более, когда выясняется, что подруга Егора — дочь директора строительной корпорации. Строителям нужно начинать работы, и они решаются на крайние меры…


Страна: Россия
Студия: Студия игрового кино "Краски"
Продолжительность: 01:10:52
Перевод: Не требуется

Файл
Кодек: MPEG-4 AVC
Качество: WEB-DL 1080p
Видео: 1920x856, 3993kb/s, 25.000fps
Звук: 192kb/s, 2ch, 48000kHz, AC3 [RUS] | Русский язык
Субтитры: Отсутствуют

РЕКЛАМА ОТСУТСТВУЕТ
Формат : Matroska
Версия формата : Version 4 / Version 2
Размер файла : 2,07 Гбайт
Продолжительность : 1 ч. 10 м.
Общий поток : 4187 Кбит/сек
Название фильма : Ozero.geroev.2017.WEB-DL.(1080p).Getty
Дата кодирования : UTC 2018-07-06 14:17:14
Программа кодирования : mkvmerge v7.8.0 ('River Man') 32bit built on Mar 27 2015 16:18:02
Библиотека кодирования : libebml v1.3.1 + libmatroska v1.4.2

Видео
Идентификатор : 1
Формат : AVC
Формат/Информация : Advanced Video Codec
Профиль формата : High@L4
Настройки формата : CABAC / 3 Ref Frames
Параметр CABAC формата : Да
Параметр RefFrames формата : 3 кадра
Идентификатор кодека : V_MPEG4/ISO/AVC
Продолжительность : 1 ч. 10 м.
Битрейт : 3993 Кбит/сек
Ширина : 1920 пикселей
Высота : 856 пикселей
Соотношение сторон : 2,25:1
Режим частоты кадров : Постоянный
Частота кадров : 25,000 кадров/сек
Цветовое пространство : YUV
Субдискретизация насыщенности : 4:2:0
Битовая глубина : 8 бит
Тип развёртки : Прогрессивная
Бит/(Пиксели*Кадры) : 0.097
Размер потока : 1,98 Гбайт (95%)
Default : Да
Forced : Нет

Аудио
Идентификатор : 2
Формат : AC-3
Формат/Информация : Audio Coding 3
Идентификатор кодека : A_AC3
Продолжительность : 1 ч. 10 м.
Вид битрейта : Постоянный
Битрейт : 192 Кбит/сек
Каналы : 2 канала
Расположение каналов : Front: L R
Частота : 48,0 КГц
Частота кадров : 31,250 кадров/сек (1536 SPF)
Битовая глубина : 16 бит
Метод сжатия : С потерями
Размер потока : 97,3 Мбайт (5%)
Default : Да
Forced : Нет
Источник http://BlaTor.org

Трекер:  [ 24-Июл-2018 09:20 ]

  

Скачать .torrent

Размер .torrent файла 11 KB


Размер: 2.07 GB
Хэш (hash) релиза: aec9c5f0d52f1ca934c10709e8f1780a4701401f
Подписка на обновления:

Еще никто не оставлял запись к записи скачать торрент Озеро героев . Будь первым!

!Обратная связь