Скачать через торрент Гоголь. Вий Фильм бесплатно в хорошем качестве torrent

Скачивайте на UnionPeer.org фильмы через торрент без регистрации. Новинки кино в хорошем качестве через торрент. На UnionPeer.org можно скачать через торрент фильмы 2014 и 2015 годов. Самые новые фильмы.

Скачать торрент Гоголь. Вий бесплатно через .torrent фильм мультфильм сериал

Статистика раздачи
Размер:  2.17 GB   |    Зарегистрирован:  4 месяца 15 дней   |    .torrent скачан:  139 раз   |   
Раздают:  1  
   
загрузка...
 
Автор Сообщение

Galfimbul

avatar Galfimbul


Гоголь. Вий



[b]Год выхода:
2018
Жанр: Детектив, приключения, драма
Страна: Россия
Перевод: Не требуется
Продолжительность: 01:39:13
Режиссер: Егор Баранов
В ролях: Александр Петров, Евгений Стычкин, Таисия Вилкова, Артем Ткаченко, Сергей Бадюк, Ян Цапник, Алексей Вертков, Марта Тимофеева, Юлия Франц, Ксения Разина и др.

О фильме: Писарь из Санкт-Петербурга Николай Гоголь бросает вызов загадочному тёмному Всаднику, который жестоко расправляется с девушками в окрестностях села Диканька. Собрав команду из местного полицейского, пьяницы-доктора, суеверного кузнеца и странствующего философа-экзорциста, Гоголь пытается заманить злодея в ловушку, но на его пути встает самое жуткое порождение нечистой силы — Вий, один взгляд которого способен высосать душу смертного. Неожиданно для себя Гоголь выясняет, что с потусторонними силами его связывают не только таинственные видения.



Файл
Формат: MKV
Качество: BDRip
Видео: MPEG-4 AVC, 1024x428, 2500 kbps, 24,000 fps
Звук: русский, AC3 5.1, 48 kHz, 640 kbps | Лицензия
Субтитры: русские, английские
General
Уникальный идентификатор : 244291108061236624031575190090280970098 (0xB7C8C18A4837966EAA4F1E6B90A1A772)
Полное имя : F:TorrentGogolViyBDRipAVC.mkv
Формат : Matroska
Версия формата : Version 4 / Version 2
Размер файла : 2.17 GiB
Продолжительность : 1 h 39 min
Общий поток : 3 137 kb/s
Дата кодирования : UTC 2018-07-28 08:58:36
Программа кодирования : mkvmerge v9.5.0 ('Quiet Fire') 64bit
Библиотека кодирования : libebml v1.3.4 + libmatroska v1.4.5

Video
Идентификатор : 1
Формат : AVC
Формат/Информация : Advanced Video Codec
Профиль формата : High@L4.1
Настройки формата : CABAC / 10 Ref Frames
Параметр CABAC формата : Yes
Параметр RefFrames формата : 10 frames
Идентификатор кодека : V_MPEG4/ISO/AVC
Продолжительность : 1 h 39 min
Битрейт : 2 500 kb/s
Ширина : 1 024 pixels
Высота : 428 pixels
Соотношение сторон : 2.40:1
Режим частоты кадров : Constant
Частота кадров : 24.000 FPS
Цветовое пространство : YUV
Субдискретизация насыщенности : 4:2:0
Битовая глубина : 8 bits
Тип развёртки : Progressive
Бит/(Пиксели*Кадры) : 0.238
Размер потока : 1.73 GiB (80%)
Библиотека кодирования : x264 core 155 r2901M 7d0ff22
Настройки программы : cabac=1 / ref=10 / deblock=1:-3:-3 / analyse=0x3:0x133 / me=umh / subme=11 / psy=1 / psy_rd=1.00:0.00 / mixed_ref=1 / me_range=48 / chroma_me=1 / trellis=2 / 8x8dct=1 / cqm=0 / deadzone=21,11 / fast_pskip=0 / chroma_qp_offset=-2 / threads=5 / lookahead_threads=1 / sliced_threads=0 / nr=0 / decimate=0 / interlaced=0 / bluray_compat=0 / constrained_intra=0 / bframes=10 / b_pyramid=2 / b_adapt=2 / b_bias=0 / direct=3 / weightb=1 / open_gop=0 / weightp=2 / keyint=240 / keyint_min=24 / scenecut=40 / intra_refresh=0 / rc_lookahead=120 / rc=2pass / mbtree=0 / bitrate=2500 / ratetol=1.0 / qcomp=0.70 / qpmin=0 / qpmax=69 / qpstep=4 / cplxblur=20.0 / qblur=0.5 / vbv_maxrate=62500 / vbv_bufsize=78125 / nal_hrd=none / filler=0 / ip_ratio=1.40 / pb_ratio=1.30 / aq=1:1.00
Default : Yes
Forced : No
Цветовой диапазон : Limited
Основные цвета : BT.709
Характеристики трансфера : BT.709
Коэффициенты матрицы : BT.709

Audio
Идентификатор : 2
Формат : AC-3
Формат/Информация : Audio Coding 3
Идентификатор кодека : A_AC3
Продолжительность : 1 h 39 min
Вид битрейта : Constant
Битрейт : 640 kb/s
Каналы : 6 channels
Расположение каналов : Front: L C R, Side: L R, LFE
Частота : 48.0 kHz
Частота кадров : 31.250 FPS (1536 SPF)
Битовая глубина : 16 bits
Метод сжатия : Lossy
Размер потока : 454 MiB (20%)
Язык : Russian
Default : Yes
Forced : No

Text #1
Идентификатор : 3
Формат : UTF-8
Идентификатор кодека : S_TEXT/UTF8
Идентификатор кодека/Информация : UTF-8 Plain Text
Продолжительность : 1 h 35 min
Битрейт : 70 b/s
ElementCount : 951
Размер потока : 49.5 KiB (0%)
Язык : Russian
Default : No
Forced : No

Text #2
Идентификатор : 4
Формат : UTF-8
Идентификатор кодека : S_TEXT/UTF8
Идентификатор кодека/Информация : UTF-8 Plain Text
Продолжительность : 1 h 35 min
Битрейт : 40 b/s
ElementCount : 951
Размер потока : 28.1 KiB (0%)
Язык : English
Default : No
Forced : No

Menu
00:00:00.000 : en:Chapter 1
00:00:30.041 : en:Chapter 2
00:12:28.250 : en:Chapter 3
00:25:02.416 : en:Chapter 4
00:35:45.250 : en:Chapter 5
00:49:36.458 : en:Chapter 6
01:00:24.041 : en:Chapter 7
01:14:40.166 : en:Chapter 8
01:27:46.000 : en:Chapter 9
Источник http://BlaTor.org

Трекер:  [ 28-Июл-2018 15:00 ]

  

Скачать .torrent

Размер .torrent файла 11 KB


Размер: 2.17 GB
Хэш (hash) релиза: b0cad99ea2c38eba34cebf7e72f0e01a9c415bb0
Подписка на обновления:

Торренты, похожие на Гоголь. Вий скачать торрент

Форум Название Автор Размер S L Добавлен
Российские фильмы 2016-2018 (Новинки русского кино) ·%· Гоголь. Вий (2018) BDRip-AVC | Лицензия Galfimbul 780478442744 MB 0 0 1534602642

17:30

18-Авг-18

Российские фильмы 2016-2018 (Новинки русского кино) ·%· Гоголь. Вий (2018) BDRip | Лицензия Galfimbul 15619599121.45 GB 0 0 1532779356

15:02

28-Июл-18

Российские фильмы 2016-2018 (Новинки русского кино) ·%· Гоголь. Вий (2018) BDRip 720p | Лицензия Galfimbul 53119262154.95 GB 0 0 1532779332

15:02

28-Июл-18

Российские фильмы 2016-2018 (Новинки русского кино) ·%· Гоголь. Вий (2018) BDRip 1080p | Лицензия Galfimbul 90395347078.42 GB 0 0 1532779319

15:01

28-Июл-18

Российские фильмы до 2016 ·· Гоголь. Вий (Егор Баранов) [2018, детектив, приключения, драма, WEB-DLRip-AVC] Galfimbul 16597363131.55 GB 0 0 1527103450

22:24

23-Май-18

Российские фильмы 2016-2018 (Новинки русского кино) ·· Гоголь. Вий (Егор Баранов) [2018, детектив, приключения, драма, WEB-DL 1080p] RUS [iTunes] Galfimbul 36492449883.4 GB 0 0 1527066286

12:04

23-Май-18

Российские фильмы 2016-2018 (Новинки русского кино) ·· Гоголь. Вий (Егор Баранов) [2018, детектив, приключения, драма, WEB-DL 720p] RUS [iTunes] Galfimbul 32807641263.06 GB 0 0 1527066276

12:04

23-Май-18

Российские фильмы 2016-2018 (Новинки русского кино) ·· Гоголь. Вий (Егор Баранов) [2018 г., детектив, приключения, драма, WEB-DLRip] | iTunes Galfimbul 15443858031.44 GB 0 0 1527066256

12:04

23-Май-18

Российские фильмы 2016-2018 (Новинки русского кино) ·· Гоголь. Вий (Егор Баранов) [2018 г., детектив, приключения, драма, WEB-DLRip-AVC] | iTunes Galfimbul 13404814701.25 GB 0 0 1527066254

12:04

23-Май-18

Российские фильмы до 2016 ·· Гоголь. Вий (Егор Баранов) [2018, Россия, приключения, триллер, детектив, WEB-DL 1080p] Original Rus Galfimbul 36492440403.4 GB 0 0 1526959839

06:30

22-Май-18

Российские фильмы до 2016 ·· Гоголь. Вий (Егор Баранов) [2018, детектив, приключения, драма, WEB-DLRip] Galfimbul 779292672743 MB 0 0 1526959447

06:24

22-Май-18

Российские фильмы до 2016 ·· Гоголь. Вий (Егор Баранов) [2018, Детектив, приключения, драма, WEB-DLRip] Galfimbul 15683645441.46 GB 0 0 1526937852

00:24

22-Май-18

Российские фильмы 2016-2018 (Новинки русского кино) ·· Гоголь. Вий (Егор Баранов) [2018 г., детектив, приключения, драма, TS 720p] Galfimbul 26337417362.45 GB 0 0 1523084328

09:58

7-Апр-18

Российские фильмы 2016-2018 (Новинки русского кино) ·· Гоголь. Вий (Егор Баранов) [2018 г., детектив, приключения, драма, TS] Galfimbul 14678835201.37 GB 0 0 1523084327

09:58

7-Апр-18

Еще никто не оставлял запись к записи скачать торрент Гоголь. Вий . Будь первым!

!Обратная связь