Скачать через торрент Касл-Рок Castle Rock Фильм бесплатно в хорошем качестве torrent

Скачивайте на UnionPeer.org фильмы через торрент без регистрации. Новинки кино в хорошем качестве через торрент. На UnionPeer.org можно скачать через торрент фильмы 2014 и 2015 годов. Самые новые фильмы.

Скачать торрент Касл-Рок Castle Rock бесплатно через .torrent фильм мультфильм сериал

Статистика раздачи
Размер:  1.77 GB   |    Зарегистрирован:  4 месяца 12 дней   |    .torrent скачан:  67 раз   |   
Раздают:  1  
   
загрузка...
 
Автор Сообщение

Galfimbul

avatar Galfimbul


Касл-Рок / Castle Rock

Год выпуска: 2018
Страна: США
Жанр: ужасы, фэнтези, триллер, драма, детектив
Продолжительность: ~ 00:55:00

Перевод: Профессиональный (многоголосый закадровый) | Jaskier

Режиссёр: Майкл Аппендаль, Дэниэл Эттиэс, Кевин Хукс

В ролях: Мелани Лински, Скотт Гленн, Андре Холланд, Джейн Леви, Терри О`Куинн, Билл Скарсгард, Сисси Спейсек, Калил Харрис, Чоузен Джейкобс, Эрик Шарп

Описание: Начальник тюрьмы Шоушенк совершает самоубийство, и после его смерти в закрытом крыле здания находят странного юношу. Никто не знает, кто это, а сам он называет только имя адвоката Генри Дивера, который вырос в Касл-Роке. Дивер возвращается в город, где когда-то трагически погиб его отец, и пытается выяснить историю загадочного заключенного.



Качество: WEB-DLRip
Формат: AVI
Видео: XviD, ~ 1400 kbps, 704x352, 23.976 fps
Аудио 1: MP3, 48,0 КГц, 2 ch, 128 kbps - RUS
Аудио 2: MP3, 48,0 КГц, 2 ch, 128 kbps - ENG
Субтитры: отсутствуют
Реклама: аудио, два раза в начале и в конце по 13 секунд
Ссылка на предыдущие и альтернативные раздачи
Общее
Формат                                   : AVI
Формат/Информация                        : Audio Video Interleave
Размер файла                             : 651 Мбайт
Продолжительность                        : 54 м.
Общий поток                              : 1670 Кбит/сек
Программа кодирования                    : VirtualDubMod 1.5.10.3 | www.virtualdub-fr.org || (build 2550/release)
Библиотека кодирования                   : VirtualDubMod build 2550/release

Видео
Идентификатор                            : 0
Формат                                   : MPEG-4 Visual
Профиль формата                          : Advanced Simple@L5
Параметр BVOP формата                    : 2
Параметр QPel формата                    : Нет
Параметр GMC формата                     : Без точки перехода
Параметр матрицы формата                 : Выборочная
Идентификатор кодека                     : XVID
Идентификатор кодека/Подсказка           : XviD
Продолжительность                        : 54 м.
Битрейт                                  : 1400 Кбит/сек
Ширина                                   : 704 пикселя
Высота                                   : 352 пикселя
Соотношение сторон                       : 2,000
Частота кадров                           : 23,976 (23976/1000) кадра/сек
Цветовое пространство                    : YUV
Субдискретизация насыщенности            : 4:2:0
Битовая глубина                          : 8 бит
Тип развёртки                            : Прогрессивная
Метод сжатия                             : С потерями
Бит/(Пиксели*Кадры)                      : 0.236
Размер потока                            : 546 Мбайт (84%)
Библиотека кодирования                   : XviD 73

Аудио #1
Идентификатор                            : 1
Формат                                   : MPEG Audio
Версия формата                           : Version 1
Профиль формата                          : Layer 3
Режим                                    : Joint stereo
Расширение режима                        : MS Stereo
Идентификатор кодека                     : 55
Идентификатор кодека/Подсказка           : MP3
Продолжительность                        : 54 м.
Вид битрейта                             : Постоянный
Битрейт                                  : 128 Кбит/сек
Каналы                                   : 2 канала
Частота                                  : 48,0 КГц
Метод сжатия                             : С потерями
Размер потока                            : 49,9 Мбайт (8%)
Выравнивание                             : Соединение по промежуткам
Продолжительность промежутка             : 42  мс. (1,00 видеокадр)
Время предзагрузки промежутка            : 504  мс.

Аудио #2
Идентификатор                            : 2
Формат                                   : MPEG Audio
Версия формата                           : Version 1
Профиль формата                          : Layer 3
Режим                                    : Joint stereo
Расширение режима                        : MS Stereo
Идентификатор кодека                     : 55
Идентификатор кодека/Подсказка           : MP3
Продолжительность                        : 54 м.
Вид битрейта                             : Постоянный
Битрейт                                  : 128 Кбит/сек
Каналы                                   : 2 канала
Частота                                  : 48,0 КГц
Метод сжатия                             : С потерями
Размер потока                            : 49,9 Мбайт (8%)
Выравнивание                             : Соединение по промежуткам
Продолжительность промежутка             : 42  мс. (1,00 видеокадр)
Время предзагрузки промежутка            : 504  мс.
Когда раздача ведётся путём добавления новых серий, при каждом добавлении создётся новый торрент. Чтобы начать докачку новой серии, пользователям необходимо сделать следующее:
(1) остановить скачивание,
(2) удалить старый торрент у себя из клиента (старые серии удалять не надо),
(3) скачать новый торрент и запустить его у себя в клиенте вместо старого, при этом указать клиенту путь в старую папку, куда и должно происходить скачивание новых серий.
Ваш клиент при этом должен произвести хеширование (проверку) старой папки (если не производит сам - помогите ему сделать это), и будет докачивать только те серии, которых у вас ещё нет. Старые серии при этом не удаляются, а продолжают раздаваться!
Eсли вы уже удалили старые серии, то предотвратить повторную закачку старых серий можно, отжав галочку в соответсвующих местах при запуске нового торрента. По возможности, желательно не удалять старые серии как можно дольше, чтобы релизёр не столько продолжал раздавать старые серии, а смог сконцентрироваться на новых.


Трекер:  [ 29-Июл-2018 16:18 ]

  

Скачать .torrent

Размер .torrent файла 18 KB


Размер: 1.77 GB
Хэш (hash) релиза: 53c9a73590f65adb73d5455fa2f24d2806c1d57f
Подписка на обновления:

Торренты, похожие на Касл-Рок Castle Rock скачать торрент

Форум Название Автор Размер S L Добавлен
Зарубежные сериалы ·%· Касл-Рок / Castle Rock / Сезон 1 / Серии 1-3 из 10 (Майкл Аппендаль) [2018, США, ужасы, фэнтези, триллер, драма, детектив, WEB-DL 1080p] MVO (Jaskier) + Original Galfimbul 45118955884.2 GB 0 0 1532965705

18:48

30-Июл-18

Зарубежные сериалы ·%· Касл-Рок / Castle Rock / Сезон 1 / Серии 1-3 из 10 (Майкл Аппендаль) [2018, США, ужасы, фэнтези, триллер, драма, детектив, WEB-DL 720p] MVO (Jaskier) + Original Galfimbul 22087450162.06 GB 0 0 1532870307

16:18

29-Июл-18

Зарубежные сериалы ·%· Касл-Рок / Castle Rock / Сезон: 1 / Серии: 1-3 из 10 (Майкл Аппендаль, Дэниэл Эттиэс, Кевин Хукс) [2018, США, ужасы, триллер, драма, детектив, WEBRip] MVO (Baibako) + Original Galfimbul 22917939202.13 GB 0 0 1532864888

14:48

29-Июл-18

Зарубежные сериалы ·%· Касл-Рок / Castle Rock / Сезон 1 / Серии 1-3 из 10 (Майкл Аппендаль) [2018, США, ужасы, фэнтези, триллер, драма, детектив, WEB-DL 720p] MVO (AlexFilm) + Original + Sub (Eng) Galfimbul 1020946758974 MB 0 0 1532807300

22:48

28-Июл-18

Еще никто не оставлял запись к записи скачать торрент Касл-Рок Castle Rock . Будь первым!

!Обратная связь