Скачать через торрент Русалка. Озеро мертвых Фильм бесплатно в хорошем качестве torrent

Скачивайте на UnionPeer.org фильмы через торрент без регистрации. Новинки кино в хорошем качестве через торрент. На UnionPeer.org можно скачать через торрент фильмы 2014 и 2015 годов. Самые новые фильмы.

Скачать торрент Русалка. Озеро мертвых бесплатно через .torrent фильм мультфильм сериал

Статистика раздачи
Размер:  1.46 GB   |    Зарегистрирован:  4 месяца 2 дня   |    .torrent скачан:  578 раз   |   
Раздают:  1  
   
загрузка...
 
Автор Сообщение

Galfimbul

avatar Galfimbul


Русалка. Озеро мертвых
«У каждого есть выбор...»


Год выпуска: 2018
Страна: Россия
Производство: СТГ Синема, QS FILMS, Централ Партнершип, Киностудия КИТ
Жанр: Фэнтези, ужасы

Режиссёр: Святослав Подгаевский
В ролях: Виктория Агалакова, Ефим Петрунин, Никита Еленев, Сесиль Плеже, Игорь Хрипунов, Софья Шидловская, Дарья Ярцева, Дмитрий Ярцев, Алла Артамонова, Эмиль Салес

Перевод: Не требуется | iTunes
Субтитры: Нет
Реклама: Отсутствует

Описание: Встреча со странной девушкой на затерянном лесном озере и её поцелуй резко меняют жизнь Ромы. Об этой встрече он очень скоро пожалеет: неизвестный недуг высасывает из него все жизненные силы. Марина готова на всё, чтобы освободить жениха от мистического морока. Что окажется сильнее: проклятье прошлого или настоящая любовь?


Качество: WEB-DLRip (AVC)
Продолжительность: 01:23:19

Формат: MKV
Видео кодек: MPEG-4 AVC
Аудио кодек: AC3
Видео: 1024x428 (2.40:1), 25,000 fps, x264 ~2 122 kbps avg, 0.194 bit/pixel
Аудио: 48 kHz, AC3 Dolby Digital, 3/2 (L,C,R,l,r) + LFE ch, ~384.00 kbps avg | RUS (iTunes)

Дата премьеры (РФ): 12 июля 2018, «Централ Партнершип»
Цифровой релиз: 14 августа 2018, «Централ Партнершип»
Общее
Уникальный идентификатор : 149593812091563610756677028034026929477 (0x708AB8605A2A1B0C7445432C46B7FD45)
Полное имя : F:OlLanDGroupRusalka.2018.WEB-DLRip(AVC).OlLanDGroup.mkv
Формат : Matroska
Версия формата : Version 4 / Version 2
Размер файла : 1,46 Гбайт
Продолжительность : 1 ч. 23 м.
Общий поток : 2507 Кбит/сек
Название фильма : Rusalka.2018 #TorpedoUK#
Дата кодирования : UTC 2018-08-14 09:33:36
Программа кодирования : mkvmerge v25.0.0 ('Prog Noir') 64-bit
Библиотека кодирования : libebml v1.3.6 + libmatroska v1.4.9

Видео
Идентификатор : 1
Формат : AVC
Формат/Информация : Advanced Video Codec
Профиль формата : High@L4.1
Параметр CABAC формата : Да
Параметр ReFrames формата : 10 кадров
Идентификатор кодека : V_MPEG4/ISO/AVC
Продолжительность : 1 ч. 23 м.
Битрейт : 2122 Кбит/сек
Ширина : 1024 пикселя
Высота : 428 пикселей
Соотношение сторон : 2,40:1
Режим частоты кадров : Постоянный
Частота кадров : 25,000 кадров/сек
Цветовое пространство : YUV
Субдискретизация насыщенности : 4:2:0
Битовая глубина : 8 бит
Тип развёртки : Прогрессивная
Бит/(Пиксели*Кадры) : 0.194
Размер потока : 1,23 Гбайт (85%)
Библиотека кодирования : x264 core 146 r2538 121396c
Настройки программы : cabac=1 / ref=10 / deblock=1:-3:-3 / analyse=0x3:0x113 / me=umh / subme=11 / psy=1 / psy_rd=0.97:0.06 / mixed_ref=1 / me_range=48 / chroma_me=1 / trellis=2 / 8x8dct=1 / cqm=0 / deadzone=21,11 / fast_pskip=1 / chroma_qp_offset=-3 / threads=6 / lookahead_threads=1 / sliced_threads=0 / nr=0 / decimate=1 / interlaced=0 / bluray_compat=0 / constrained_intra=0 / bframes=10 / b_pyramid=2 / b_adapt=2 / b_bias=0 / direct=3 / weightb=1 / open_gop=0 / weightp=2 / keyint=250 / keyint_min=25 / scenecut=40 / intra_refresh=0 / rc_lookahead=40 / rc=2pass / mbtree=1 / bitrate=2122 / ratetol=1.0 / qcomp=0.60 / qpmin=0 / qpmax=69 / qpstep=4 / cplxblur=20.0 / qblur=0.5 / vbv_maxrate=50000 / vbv_bufsize=62500 / nal_hrd=none / filler=0 / ip_ratio=1.40 / aq=1:1.00
Default : Да
Forced : Нет

Аудио
Идентификатор : 2
Формат : AC-3
Формат/Информация : Audio Coding 3
Расширение режима : CM (complete main)
Параметр Endianness формата : Big
Идентификатор кодека : A_AC3
Продолжительность : 1 ч. 23 м.
Вид битрейта : Постоянный
Битрейт : 384 Кбит/сек
Каналы : 6 каналов
Расположение каналов : Front: L C R, Side: L R, LFE
Частота : 48,0 КГц
Частота кадров : 31,250 кадров/сек (1536 spf)
Битовая глубина : 16 бит
Метод сжатия : С потерями
Размер потока : 229 Мбайт (15%)
Заголовок : iTunes
Язык : Russian
Default : Да
Forced : Нет

Меню
00:00:00.000 : en:Глава 1
00:08:19.640 : en:Глава 2
00:14:49.040 : en:Глава 3
00:20:20.840 : en:Глава 4
00:24:52.200 : en:Глава 5
00:29:50.320 : en:Глава 6
00:36:30.480 : en:Глава 7
00:42:06.520 : en:Глава 8
00:46:17.120 : en:Глава 9
00:51:53.480 : en:Глава 10
00:57:56.920 : en:Глава 11
01:04:05.040 : en:Глава 12
01:08:12.360 : en:Глава 13
01:14:08.120 : en:Глава 14
Источник http://BlaTor.org

Трекер:  [ 14-Авг-2018 12:50 ]

  

Скачать .torrent

Размер .torrent файла 15 KB


Размер: 1.46 GB
Хэш (hash) релиза: 51dd023f3de84a8bd3a65502bebea68258723ac3
Подписка на обновления:

Торренты, похожие на Русалка. Озеро мертвых скачать торрент

Форум Название Автор Размер S L Добавлен
Российские фильмы 2016-2018 (Новинки русского кино) ·%· Русалка. Озеро мертвых (2018) BDRip 1080p от селезень | GER Transfer | Лицензия Galfimbul 79040272267.36 GB 0 0 1544079060

09:51

6-Дек-18

Российские фильмы 2016-2018 (Новинки русского кино) ·%· Русалка. Озеро мертвых (2018) BDRip от ExKinoRay | GER Transfer | Лицензия Galfimbul 15689447161.46 GB 0 0 1544016087

16:21

5-Дек-18

Российские фильмы 2016-2018 (Новинки русского кино) ·%· Русалка. Озеро мертвых (2018) BDRip 720p от ExKinoRay | GER Transfer | Лицензия Galfimbul 31011584382.89 GB 0 0 1543954896

23:21

4-Дек-18

Российские фильмы 2016-2018 (Новинки русского кино) ·%· Русалка. Озеро мертвых (2018) BDRip-AVC от OlLanDGroup | GER Transfer | Лицензия Galfimbul 15495208301.44 GB 0 0 1543951312

22:21

4-Дек-18

Российские фильмы 2016-2018 (Новинки русского кино) ·%· Русалка. Озеро мертвых (2018) BDRemux 1080p от селезень | GER Transfer | Лицензия Galfimbul 1502347898613.99 GB 0 0 1543897242

07:20

4-Дек-18

Российские фильмы 2016-2018 (Новинки русского кино) ·%· Русалка. Озеро мертвых (2018) Blu-ray 1080p | GER Transfer | Лицензия Galfimbul 2489057039423.18 GB 0 0 1543876285

01:31

4-Дек-18

Российские фильмы 2016-2018 (Новинки русского кино) ·%· Русалка. Озеро мертвых (2018) WEB-DLRip-AVC | iTunes Galfimbul 781540843745 MB 0 0 1534236636

11:50

14-Авг-18

Российские фильмы 2016-2018 (Новинки русского кино) ·%· Русалка. Озеро мертвых (2018) WEB-DL 1080p | iTunes Galfimbul 30561445432.85 GB 0 0 1534191032

23:10

13-Авг-18

Российские фильмы 2016-2018 (Новинки русского кино) ·%· Русалка. Озеро мертвых (2018) WEB-DLRip от MegaPeer | iTunes Galfimbul 15661445121.46 GB 0 0 1534191022

23:10

13-Авг-18

Еще никто не оставлял запись к записи скачать торрент Русалка. Озеро мертвых . Будь первым!

!Обратная связь