Скачать через торрент Решение о ликвидации Фильм бесплатно в хорошем качестве torrent

Скачивайте на UnionPeer.org фильмы через торрент без регистрации. Новинки кино в хорошем качестве через торрент. На UnionPeer.org можно скачать через торрент фильмы 2014 и 2015 годов. Самые новые фильмы.

Скачать торрент Решение о ликвидации бесплатно через .torrent фильм мультфильм сериал

Статистика раздачи
Размер:  3.78 GB   |    Зарегистрирован:  3 месяца 21 день   |    .torrent скачан:  176 раз   |   
Раздают:  1  
   
загрузка...
 
Автор Сообщение

Galfimbul

avatar Galfimbul


Решение о ликвидации



[b]Год выхода:
2018
Жанр: Военный, боевик, драма
Страна: Россия
Перевод: Не требуется
Продолжительность: 01:36:11
Режиссер: Александр Аравин
В ролях: Игорь Петренко, Алексей Вертков, Аюб Цингиев, Алексей Шевченков, Дмитрий Парастаев, Иван Шахназаров, Дагун Омаев, Сослан Фидаров, Кирилл Краснов, Шамиль Алханов и др.

О фильме: Особое задание спецгруппы ФСБ — ликвидация одержимого террориста Шамиля Базгаева. Охота продолжается уже долго, но жестокий лидер боевиков раз за разом ускользает. Однако, когда Базгаеву удается заполучить мощное оружие для осуществления своего самого страшного теракта, у оперативников больше нет права на ошибку. Для этих спецов преодоление себя, смертельный риск и подвиг — не что-то сверхъестественное, а каждодневный тяжелый труд. Но, кажется, даже для них эта операция — за пределами возможностей…



Файл
Качество: BDRip 720p
Видео: MPEG-4 AVC, 1280x536, 5000 kbps, 23,976 fps
Звук: русский, AC3, 5.1 ch, 48 kHz, 640 kbps | Лицензия
Субтитры: русские (вшитые) на чеченскую речь
General
Уникальный идентификатор : 206640619118770470333093340198020122402 (0x9B75891DA7C97080A3F6A97BCB150722)
Полное имя : F:TorrentReshenieOlikvidaciiBDRip720p.mkv
Формат : Matroska
Версия формата : Version 4 / Version 2
Размер файла : 3.78 GiB
Продолжительность : 1 h 36 min
Общий поток : 5 632 kb/s
Дата кодирования : UTC 2018-08-25 09:02:12
Программа кодирования : mkvmerge v9.5.0 ('Quiet Fire') 64bit
Библиотека кодирования : libebml v1.3.4 + libmatroska v1.4.5

Video
Идентификатор : 1
Формат : AVC
Формат/Информация : Advanced Video Codec
Профиль формата : High@L4.1
Настройки формата : CABAC / 12 Ref Frames
Параметр CABAC формата : Yes
Параметр RefFrames формата : 12 frames
Идентификатор кодека : V_MPEG4/ISO/AVC
Продолжительность : 1 h 36 min
Битрейт : 5 000 kb/s
Ширина : 1 280 pixels
Высота : 536 pixels
Соотношение сторон : 2.40:1
Режим частоты кадров : Constant
Частота кадров : 23.976 (24000/1001) FPS
Цветовое пространство : YUV
Субдискретизация насыщенности : 4:2:0
Битовая глубина : 8 bits
Тип развёртки : Progressive
Бит/(Пиксели*Кадры) : 0.304
Размер потока : 3.35 GiB (89%)
Библиотека кодирования : x264 core 155 r2901M 7d0ff22
Настройки программы : cabac=1 / ref=12 / deblock=1:-3:-3 / analyse=0x3:0x133 / me=umh / subme=11 / psy=1 / psy_rd=1.00:0.00 / mixed_ref=1 / me_range=48 / chroma_me=1 / trellis=2 / 8x8dct=1 / cqm=0 / deadzone=21,11 / fast_pskip=0 / chroma_qp_offset=-2 / threads=5 / lookahead_threads=1 / sliced_threads=0 / nr=0 / decimate=0 / interlaced=0 / bluray_compat=0 / constrained_intra=0 / bframes=12 / b_pyramid=2 / b_adapt=2 / b_bias=0 / direct=3 / weightb=1 / open_gop=0 / weightp=2 / keyint=240 / keyint_min=24 / scenecut=40 / intra_refresh=0 / rc_lookahead=120 / rc=2pass / mbtree=0 / bitrate=5000 / ratetol=1.0 / qcomp=0.70 / qpmin=0 / qpmax=69 / qpstep=4 / cplxblur=20.0 / qblur=0.5 / vbv_maxrate=62500 / vbv_bufsize=78125 / nal_hrd=none / filler=0 / ip_ratio=1.40 / pb_ratio=1.30 / aq=3:0.80
Default : Yes
Forced : No
Цветовой диапазон : Limited
Основные цвета : BT.709
Характеристики трансфера : BT.709
Коэффициенты матрицы : BT.709

Audio
Идентификатор : 2
Формат : AC-3
Формат/Информация : Audio Coding 3
Идентификатор кодека : A_AC3
Продолжительность : 1 h 36 min
Вид битрейта : Constant
Битрейт : 640 kb/s
Каналы : 6 channels
Расположение каналов : Front: L C R, Side: L R, LFE
Частота : 48.0 kHz
Частота кадров : 31.250 FPS (1536 SPF)
Битовая глубина : 16 bits
Метод сжатия : Lossy
Размер потока : 440 MiB (11%)
Язык : Russian
Default : Yes
Forced : No

Menu
00:00:00.000 : en:Chapter 1
00:10:03.686 : en:Chapter 2
00:18:43.539 : en:Chapter 3
00:27:10.587 : en:Chapter 4
00:35:30.294 : en:Chapter 5
00:44:10.356 : en:Chapter 6
00:53:00.343 : en:Chapter 7
01:03:31.182 : en:Chapter 8
01:13:11.345 : en:Chapter 9
01:22:21.353 : en:Chapter 10
Источник http://BlaTor.org

Трекер:  [ 25-Авг-2018 14:00 ]

  

Скачать .torrent

Размер .torrent файла 19 KB


Размер: 3.78 GB
Хэш (hash) релиза: a831bb1c581556a86bd3dad3238d2492846e5f32
Подписка на обновления:

Торренты, похожие на Решение о ликвидации скачать торрент

Форум Название Автор Размер S L Добавлен
Российские фильмы 2016-2018 (Новинки русского кино) ·%· Решение о ликвидации (2018) DVD5 от New-Team | Лицензия Galfimbul 43048755204.01 GB 0 0 1536489742

13:42

9-Сен-18

Российские фильмы 2016-2018 (Новинки русского кино) ·%· Решение о ликвидации (2018) BDRip-AVC от ExKinoRay | Лицензия Galfimbul 782213003746 MB 0 0 1535313027

22:50

26-Авг-18

Российские фильмы 2016-2018 (Новинки русского кино) ·%· Решение о ликвидации (2018) BDRemux 1080p от OlLanDGroup | Лицензия Galfimbul 2079815007819.37 GB 0 0 1535281216

14:00

26-Авг-18

Российские фильмы 2016-2018 (Новинки русского кино) ·%· Решение о ликвидации (2018) HDRip от MegaPeer | Лицензия Galfimbul 780967390745 MB 0 0 1535261421

08:30

26-Авг-18

Российские фильмы 2016-2018 (Новинки русского кино) ·%· Решение о ликвидации (2018) BDRip от ExKinoRay | Лицензия Galfimbul 15685973121.46 GB 0 0 1535227950

23:12

25-Авг-18

Российские фильмы 2016-2018 (Новинки русского кино) ·%· Решение о ликвидации (2018) BDRip от MegaPeer | Лицензия Galfimbul 15688273921.46 GB 0 0 1535216025

19:53

25-Авг-18

Российские фильмы 2016-2018 (Новинки русского кино) ·%· Решение о ликвидации (2018) BDRip | Лицензия Galfimbul 15603789381.45 GB 0 0 1535194873

14:01

25-Авг-18

Российские фильмы 2016-2018 (Новинки русского кино) ·%· Решение о ликвидации (2018) BDRip-AVC | Лицензия Galfimbul 21578641302.01 GB 0 0 1535194859

14:00

25-Авг-18

Российские фильмы 2016-2018 (Новинки русского кино) ·%· Решение о ликвидации (2018) BDRip 1080p | Лицензия Galfimbul 83182197387.75 GB 0 0 1535194811

14:00

25-Авг-18

Российские фильмы 2016-2018 (Новинки русского кино) ·%· Решение о ликвидации (2018) WEB-DLRip-AVC от GeneralFilm Galfimbul 15714862171.46 GB 0 0 1533334217

01:10

4-Авг-18

Российские фильмы 2016-2018 (Новинки русского кино) ·%· Решение о ликвидации (2018) WEB-DLRip от GeneralFilm Galfimbul 781543424745 MB 0 0 1533228655

19:50

2-Авг-18

Российские фильмы 2016-2018 (Новинки русского кино) ·%· Решение о ликвидации (2018) WEB-DLRip от Generalfilm | КПК Galfimbul 368078337351 MB 0 0 1533219066

17:11

2-Авг-18

Российские фильмы 2016-2018 (Новинки русского кино) ·%· Решение о ликвидации (2018) WEB-DLRip Galfimbul 15635458001.46 GB 0 0 1533207844

14:04

2-Авг-18

Зарубежные фильмы до 2016 ·· Приказано уничтожить / Решение о ликвидации / Executive Decision (Стюарт Бейрд / Stuart Baird) [1996, США, боевик, триллер, приключения, HDTVRip] DUB + Sub rus, eng + original eng Galfimbul 23485032592.19 GB 0 0 1365330920

13:35

7-Апр-13

Зарубежные фильмы до 2016 ·· Приказано уничтожить / Решение о ликвидации / Executive Decision (Стюарт Бейрд / Stuart Baird) [1996 г., боевик, HDTVRip] MVO "Россия" Galfimbul 15693783041.46 GB 0 0 1365265930

19:32

6-Апр-13

Зарубежные фильмы до 2016 ·· Приказано уничтожить / Решение о ликвидации / Executive Decision (Стюарт Бейрд / Stuart Baird) [1996 г., боевик, триллер, приключения, BDRip-AVC] Dub + MVO ("Россия") + AVO (Гаврилов) + Eng + Sub (Rus, Eng) L 21360713681.99 GB 0 0 1326294149

18:02

11-Янв-12

Зарубежные фильмы до 2016 ·· Приказано уничтожить / Решение о ликвидации / Executive Decision (Стюарт Бейрд / Stuart Baird) [1996 г., боевик, HDTVRip] MVO ("Россия") Galfimbul 15605166081.45 GB 0 0 1314089531

11:52

23-Авг-11

Зарубежные фильмы до 2016 ·· Приказано уничтожить / Решение о ликвидации / Executive Decision (Стюарт Бейрд / Stuart Baird) [1996 г., боевик, HDTVRip] MVO ("Россия") Galfimbul 844873728806 MB 0 0 1314089495

11:51

23-Авг-11

Зарубежные фильмы до 2016 ·· Приказано уничтожить (Решение о ликвидации) / Executive decision (Стюарт Бэйрд / Stuart Baird) [1996 г., Боевик, триллер, DVD9] Dub + AVO (Гаврилов) + Rus sub Galfimbul 69560995846.48 GB 0 0 1303921607

19:26

27-Апр-11

Еще никто не оставлял запись к записи скачать торрент Решение о ликвидации . Будь первым!

!Обратная связь