Скачать через торрент Решение о ликвидации Фильм бесплатно в хорошем качестве torrent

Скачивайте на UnionPeer.org фильмы через торрент без регистрации. Новинки кино в хорошем качестве через торрент. На UnionPeer.org можно скачать через торрент фильмы 2014 и 2015 годов. Самые новые фильмы.

Скачать торрент Решение о ликвидации бесплатно через .torrent фильм мультфильм сериал

 
Автор Сообщение

Galfimbul

avatar Galfimbul


Решение о ликвидации



Год выпуска: 2018
Страна: Россия
Производство: «Мосфильм»
Жанр: Военный, боевик, драма

Режиссёр: Александр Аравин
В ролях: Игорь Петренко, Алексей Вертков, Аюб Цингиев, Алексей Шевченков, Дмитрий Парастаев, Иван Шахназаров, Дагун Омаев, Сослан Фидаров, Кирилл Краснов, Шамиль Алханов

Перевод: Не требуется | Лицензия
Субтитры: Нет
Реклама: Отсутствует

Описание: Особое задание спецгруппы ФСБ - ликвидация одержимого террориста Шамиля Базгаева. Охота продолжается уже долго, но жестокий лидер боевиков раз за разом ускользает. Однако, когда Базгаеву удается заполучить мощное оружие для осуществления своего самого страшного теракта, у оперативников больше нет права на ошибку. Для этих спецов преодоление себя, смертельный риск и подвиг - не что-то сверхъестественное, а каждодневный тяжелый труд. Но, кажется, даже для них эта операция - за пределами возможностей...



Качество: BDRip-AVC
Продолжительность: 01:32:20

Формат: MKV
Видео кодек: MPEG-4 AVC
Аудио кодек: AC3
Видео: 976x408 (2.40:1), 23,976 fps, x264 ~1 723 kbps avg, 0.180 bit/pixel
Аудио: 48 kHz, AC3 Dolby Digital, 3/2 (L,C,R,l,r) + LFE ch, ~448.00 kbps avg | RUS (Лицензия)

Дата премьеры (РФ): 7 июня 2018, «Централ Партнершип»

Общее
Уникальный идентификатор : 321468861761076394730346541026595846561 (0xF1D8A694A09BBF443EC0B1D8EFC039A1)
Полное имя : F:OlLanDGroupReshenie.O.Likvidacii.2018.BDRip(AVC).OlLanDGroup.mkv
Формат : Matroska
Версия формата : Version 4 / Version 2
Размер файла : 1,46 Гбайт
Продолжительность : 1 ч. 36 м.
Общий поток : 2172 Кбит/сек
Название фильма : Reshenie.O.Likvidacii.2018 #TorpedoUK#
Дата кодирования : UTC 2018-08-27 06:11:27
Программа кодирования : mkvmerge v25.0.0 ('Prog Noir') 64-bit
Библиотека кодирования : libebml v1.3.6 + libmatroska v1.4.9
Обложка : Yes
Attachments : Cover - Reshenie.O.Likvidicii.png

Видео
Идентификатор : 1
Формат : AVC
Формат/Информация : Advanced Video Codec
Профиль формата : High@L4.1
Параметр CABAC формата : Да
Параметр ReFrames формата : 10 кадров
Идентификатор кодека : V_MPEG4/ISO/AVC
Продолжительность : 1 ч. 36 м.
Битрейт : 1723 Кбит/сек
Ширина : 976 пикселей
Высота : 408 пикселей
Соотношение сторон : 2,40:1
Режим частоты кадров : Постоянный
Частота кадров : 23,976 (24000/1001) кадра/сек
Цветовое пространство : YUV
Субдискретизация насыщенности : 4:2:0
Битовая глубина : 8 бит
Тип развёртки : Прогрессивная
Бит/(Пиксели*Кадры) : 0.180
Размер потока : 1,16 Гбайт (79%)
Библиотека кодирования : x264 core 146 r2538 121396c
Настройки программы : cabac=1 / ref=10 / deblock=1:-3:-3 / analyse=0x3:0x113 / me=umh / subme=11 / psy=1 / psy_rd=0.99:0.04 / mixed_ref=1 / me_range=48 / chroma_me=1 / trellis=2 / 8x8dct=1 / cqm=0 / deadzone=21,11 / fast_pskip=1 / chroma_qp_offset=-3 / threads=6 / lookahead_threads=1 / sliced_threads=0 / nr=0 / decimate=1 / interlaced=0 / bluray_compat=0 / constrained_intra=0 / bframes=10 / b_pyramid=2 / b_adapt=2 / b_bias=0 / direct=3 / weightb=1 / open_gop=0 / weightp=2 / keyint=240 / keyint_min=23 / scenecut=40 / intra_refresh=0 / rc_lookahead=40 / rc=2pass / mbtree=1 / bitrate=1723 / ratetol=1.0 / qcomp=0.60 / qpmin=0 / qpmax=69 / qpstep=4 / cplxblur=20.0 / qblur=0.5 / vbv_maxrate=50000 / vbv_bufsize=62500 / nal_hrd=none / filler=0 / ip_ratio=1.40 / aq=1:1.00
Default : Да
Forced : Нет

Аудио
Идентификатор : 2
Формат : AC-3
Формат/Информация : Audio Coding 3
Расширение режима : CM (complete main)
Параметр Endianness формата : Big
Идентификатор кодека : A_AC3
Продолжительность : 1 ч. 36 м.
Вид битрейта : Постоянный
Битрейт : 448 Кбит/сек
Каналы : 6 каналов
Расположение каналов : Front: L C R, Side: L R, LFE
Частота : 48,0 КГц
Частота кадров : 31,250 кадров/сек (1536 spf)
Битовая глубина : 16 бит
Метод сжатия : С потерями
Размер потока : 308 Мбайт (21%)
Заголовок : Original
Язык : Russian
Default : Да
Forced : Нет

Меню
00:00:00.000 : ru:Chapter 01
00:10:03.686 : ru:Chapter 02
00:18:43.539 : ru:Chapter 03
00:27:10.587 : ru:Chapter 04
00:35:30.294 : ru:Chapter 05
00:44:10.356 : ru:Chapter 06
00:53:00.343 : ru:Chapter 07
01:03:31.182 : ru:Chapter 08
01:13:11.345 : ru:Chapter 09
01:22:21.353 : ru:Chapter 10
Источник http://BlaTor.org

Еще никто не оставлял запись к записи скачать торрент Решение о ликвидации . Будь первым!

!Обратная связь