Скачать через торрент День расплаты Серии: 1-4 из 4 Фильм бесплатно в хорошем качестве torrent

Скачивайте на UnionPeer.org фильмы через торрент без регистрации. Новинки кино в хорошем качестве через торрент. На UnionPeer.org можно скачать через торрент фильмы 2014 и 2015 годов. Самые новые фильмы.

Скачать торрент День расплаты Серии: 1-4 из 4 бесплатно через .torrent фильм мультфильм сериал

Статистика раздачи
Размер:  2.42 GB   |    Зарегистрирован:  3 месяца 14 дней   |    .torrent скачан:  141 раз   |   
Раздают:  1  
   
загрузка...
 
Автор Сообщение

aleksan55

avatar aleksan55


День расплаты

Год выпуска: 2018
Страна: Россия | Формат
Жанр: мелодрама,драма
Продолжительность: 00:46:00
Субтитры: нет
Режиссёр: Тэмо Эсадзе

В ролях:Наталья Романычева, Мила Новикова, Дмитрий Грошев, Наталья Ткаченко, Лада Чуровская, Алексей Фокин, Геннадий Смирнов, Дмитрий Сутырин, Алексей Медведев
Описание:
Это история об обычных людях, волею обстоятельств оказавшихся втянутыми в необычную, страшную историю, где человеческая жизнь перестает быть главной ценностью, где сведение личных счетов и сугубо меркантильный характер отношений диктуют ход и причинно-следственную логику событий.Три разновозрастные, ничем не непохожие и незнакомые друг с другом женщины в один день получают известие о том, что их жизни угрожает реальная опасность. Удивительно еще и то, что «письма счастья» приходят каждой из них «с того света», ибо автор, приговоривший их к казни – пенсионер-математик – умер за месяц до описываемых событий.

Качество: SATRip-AVC
Формат: MKV
Видео кодек: H.264
Аудио кодек: AC3
Видео: MPEG4 Video (H264), 720x400, 25fps,1700 Kbps,bit/pixel 0.236
Аудио : AC3 48000Hz, stereo, 192 kbps,2 ch
Общее
Уникальный идентификатор : 183528578911449712356254315202423501686 (0x8A12518E4DDFA66FB37A4BF5B27F3376)
Полное имя : F:\День расплаты\01 серия_День расплаты_rip by_Aleksan55.mkv
Формат : Matroska
Версия формата : Version 2
Размер файла : 629 Мбайт
Продолжительность : 46 м. 27 с.
Общий поток : 1894 Кбит/сек
Дата кодирования : UTC 2018-08-29 13:21:17
Программа кодирования : mkvmerge v7.8.0 ('River Man') 32bit built on Apr 3 2015 12:11:22
Библиотека кодирования : libebml v1.3.1 + libmatroska v1.4.2

Видео
Идентификатор : 1
Формат : AVC
Формат/Информация : Advanced Video Codec
Профиль формата : High@L4.1
Параметр CABAC формата : Да
Параметр ReFrames формата : 14 кадров
Идентификатор кодека : V_MPEG4/ISO/AVC
Продолжительность : 46 м. 27 с.
Битрейт : 1700 Кбит/сек
Ширина : 720 пикселей
Высота : 400 пикселей
Соотношение сторон : 16:9
Режим частоты кадров : Постоянный
Частота кадров : 25,000 кадров/сек
Цветовое пространство : YUV
Субдискретизация насыщенности : 4:2:0
Битовая глубина : 8 бит
Тип развёртки : Прогрессивная
Бит/(Пиксели*Кадры) : 0.236
Размер потока : 553 Мбайт (88%)
Библиотека кодирования : x264 core 146 r2538 121396c
Настройки программы : cabac=1 / ref=14 / deblock=1:-1:-1 / analyse=0x3:0x133 / me=umh / subme=9 / psy=1 / psy_rd=0.90:0.15 / mixed_ref=0 / me_range=32 / chroma_me=1 / trellis=2 / 8x8dct=1 / cqm=0 / deadzone=21,11 / fast_pskip=1 / chroma_qp_offset=-3 / threads=12 / lookahead_threads=1 / sliced_threads=0 / nr=0 / decimate=0 / interlaced=0 / bluray_compat=0 / constrained_intra=0 / bframes=14 / b_pyramid=2 / b_adapt=1 / b_bias=0 / direct=3 / weightb=1 / open_gop=0 / weightp=2 / keyint=250 / keyint_min=25 / scenecut=40 / intra_refresh=0 / rc_lookahead=40 / rc=2pass / mbtree=1 / bitrate=1700 / ratetol=1.0 / qcomp=0.60 / qpmin=0 / qpmax=39 / qpstep=4 / cplxblur=20.0 / qblur=0.5 / ip_ratio=1.40 / aq=1:1.00
Default : Да
Forced : Нет
Цветовой диапазон : Limited
Основные цвета : BT.601 PAL
Характеристики трансфера : BT.470 System B, BT.470 System G
Коэффициенты матрицы : BT.601

Аудио
Идентификатор : 2
Формат : AC-3
Формат/Информация : Audio Coding 3
Расширение режима : CM (complete main)
Параметр Endianness формата : Big
Идентификатор кодека : A_AC3
Продолжительность : 46 м. 27 с.
Вид битрейта : Постоянный
Битрейт : 192 Кбит/сек
Каналы : 2 канала
Расположение каналов : Front: L R
Частота : 48,0 КГц
Частота кадров : 31,250 кадров/сек (1536 spf)
Битовая глубина : 16 бит
Метод сжатия : С потерями
Размер потока : 63,8 Мбайт (10%)
Default : Да
Forced : Нет :


Трекер:  [ 30-Авг-2018 07:43 ]

  

Скачать .torrent

Размер .torrent файла 13 KB


Размер: 2.42 GB
Хэш (hash) релиза: 63129917fbc552816ebf06a7ef44427151827dbb
Подписка на обновления:

Еще никто не оставлял запись к записи скачать торрент День расплаты Серии: 1-4 из 4 . Будь первым!

!Обратная связь