Скачать через торрент Морские дьяволы. Рубежи Родины Серии: 1-10 из 24 Фильм бесплатно в хорошем качестве torrent

Скачивайте на UnionPeer.org фильмы через торрент без регистрации. Новинки кино в хорошем качестве через торрент. На UnionPeer.org можно скачать через торрент фильмы 2014 и 2015 годов. Самые новые фильмы.

Скачать торрент Морские дьяволы. Рубежи Родины Серии: 1-10 из 24 бесплатно через .torrent фильм мультфильм сериал

Статистика раздачи
Размер:  5.86 GB   |    Зарегистрирован:  2 месяца 5 дней   |    .torrent скачан:  501 раз   |   
Раздают:  1  
   
загрузка...
 
Автор Сообщение

aleksan55

avatar aleksan55


Морские дьяволы. Рубежи Родины

Год выпуска: 2018
Страна: Россия | Гамма Продакшн
Жанр: боевик, криминал, приключения
Продолжительность: 00:49:00
Субтитры: нет
Режиссёр:Александр Картохин

В ролях:Олег Чернов, Дарья Юргенс, Иван Паршин, Антон Гуляев, Александра Большакова, Виталий Бисеров, Антон Багров, Марина Доможирова, Снежана Прудько, Кристина Оленникова, Руслан Ягудин, Александр Удальцов, Антон Чернов, Юлия Кудояр, Михаил Куряев, Владимир Потапов, Юлия Полынская, Роман Притула, Евгений Щербаков
Описание:
Из северных приграничных регионов отряд «НЕРПЫ» перебрасывается на секретную военную базу, местоположение которой строго засекречено, и каждое задание «НЕРП» – это боевой вылет (выезд) к месту проведения операции в разных уголках нашей страны. «Нерпами» по-прежнему командуют Бизон, Батя и Багира. В составе отряда: Кот, Сармат, Дана, Агата и Опер. Новые сюжеты развиваются в современных реалиях, в контексте, близком к сегодняшней геополитической ситуации, на фоне основных международных конфликтов, в том числе в информационной среде. В данном сезоне герои попадают в ещё более реалистичные и экстремальные ситуации. В основе каждого нового фильма по-прежнему остается остросюжетная детективная история.

Качество: SATRip-AVC
Формат: MKV
Видео кодек: H.264
Аудио кодек: AC3
Видео: MPEG4 Video (H264), 720x400, 25fps,1500 Kbps,bit/pixel 0.208
Аудио : AC3 48000Hz, stereo, 192 kbps,2 ch
Общее
Уникальный идентификатор : 186006640271090156130543893884028415711 (0x8BEF9369F12305628CC741E9F54D6EDF)
Полное имя : E:\Морские дьяволы. Рубежи Родины\01 серия_Морские дьяволы. Рубежи Родины_rip by_Aleksan55.mkv
Формат : Matroska
Версия формата : Version 2
Размер файла : 601 Мбайт
Продолжительность : 49 м. 35 с.
Общий поток : 1694 Кбит/сек
Дата кодирования : UTC 2018-09-07 13:04:55
Программа кодирования : mkvmerge v7.8.0 ('River Man') 32bit built on Apr 3 2015 12:11:22
Библиотека кодирования : libebml v1.3.1 + libmatroska v1.4.2

Видео
Идентификатор : 1
Формат : AVC
Формат/Информация : Advanced Video Codec
Профиль формата : High@L4.1
Параметр CABAC формата : Да
Параметр ReFrames формата : 14 кадров
Идентификатор кодека : V_MPEG4/ISO/AVC
Продолжительность : 49 м. 35 с.
Битрейт : 1500 Кбит/сек
Ширина : 720 пикселей
Высота : 400 пикселей
Соотношение сторон : 16:9
Режим частоты кадров : Постоянный
Частота кадров : 25,000 кадров/сек
Цветовое пространство : YUV
Субдискретизация насыщенности : 4:2:0
Битовая глубина : 8 бит
Тип развёртки : Прогрессивная
Бит/(Пиксели*Кадры) : 0.208
Размер потока : 521 Мбайт (87%)
Библиотека кодирования : x264 core 146 r2538 121396c
Настройки программы : cabac=1 / ref=14 / deblock=1:-1:-1 / analyse=0x3:0x133 / me=umh / subme=9 / psy=1 / psy_rd=0.90:0.00 / mixed_ref=0 / me_range=32 / chroma_me=1 / trellis=2 / 8x8dct=1 / cqm=0 / deadzone=21,11 / fast_pskip=1 / chroma_qp_offset=-2 / threads=12 / lookahead_threads=1 / sliced_threads=0 / nr=0 / decimate=0 / interlaced=0 / bluray_compat=0 / constrained_intra=0 / bframes=14 / b_pyramid=2 / b_adapt=1 / b_bias=0 / direct=3 / weightb=1 / open_gop=0 / weightp=2 / keyint=250 / keyint_min=25 / scenecut=40 / intra_refresh=0 / rc_lookahead=40 / rc=2pass / mbtree=1 / bitrate=1500 / ratetol=1.0 / qcomp=0.60 / qpmin=0 / qpmax=39 / qpstep=4 / cplxblur=20.0 / qblur=0.5 / ip_ratio=1.40 / aq=1:1.00
Default : Да
Forced : Нет
Цветовой диапазон : Limited
Основные цвета : BT.601 PAL
Характеристики трансфера : BT.470 System B, BT.470 System G
Коэффициенты матрицы : BT.601

Аудио
Идентификатор : 2
Формат : AC-3
Формат/Информация : Audio Coding 3
Расширение режима : CM (complete main)
Параметр Endianness формата : Big
Идентификатор кодека : A_AC3
Продолжительность : 49 м. 35 с.
Вид битрейта : Постоянный
Битрейт : 192 Кбит/сек
Каналы : 2 канала
Расположение каналов : Front: L R
Частота : 48,0 КГц
Частота кадров : 31,250 кадров/сек (1536 spf)
Битовая глубина : 16 бит
Метод сжатия : С потерями
Размер потока : 68,1 Мбайт (11%)
Default : Да
Forced : Нет :
Внимание! Раздача ведётся путём добавления новых серий; при каждом добавлении создаётся новый торрент.
Чтобы начать докачку новой серии, пользователям необходимо сделать следующее:
1. Остановить скачивание;
2. Удалить старый торрент у себя из клиента (старые серии удалять не надо);
3. Скачать новый торрент и запустить его у себя в клиенте вместо старого, при этом указать клиенту путь в старую папку куда и должно происходить скачивание новых серий. Ваш клиент при этом должен произвести хеширование (проверку) старой папки и будет докачивать только те серии, которых у вас ещё нет. Старые серии при этом не удаляются, а продолжают раздаваться! Eсли вы уже удалили старые серии, то предотвратить повторную закачку старых серий можно, отжав галочку в соответствующих местах при запуске нового торрента.


Показывают один раз вм неделю.Добавлены 9-10 серия.


Трекер:  [ 05-Окт-2018 23:56 ]

  

Скачать .torrent

Размер .torrent файла 31 KB


Размер: 5.86 GB
Хэш (hash) релиза: 1b48b3b7517de7f21274e1f01b373b8fbe7567e2
Подписка на обновления:

Еще никто не оставлял запись к записи скачать торрент Морские дьяволы. Рубежи Родины Серии: 1-10 из 24 . Будь первым!

!Обратная связь