Скачать через торрент Ускользающая жизнь Наследство Фильм бесплатно в хорошем качестве torrent

Скачивайте на UnionPeer.org фильмы через торрент без регистрации. Новинки кино в хорошем качестве через торрент. На UnionPeer.org можно скачать через торрент фильмы 2014 и 2015 годов. Самые новые фильмы.

Скачать торрент Ускользающая жизнь Наследство бесплатно через .torrent фильм мультфильм сериал

 
Автор Сообщение

Galfimbul

avatar Galfimbul


>
>Ускользающая жизнь (Наследство)



>[b]Год выхода:
2018
>Жанр: детектив, мелодрама
>Режиссер: Владимир Нахабцев

>В ролях: Глафира Тарханова, Александр Никитин , Юрий Беляев, Андрей Чадов, Александр Подобед, Андрей Карако, Анна Полупанова, Алеся Самоховец, Светлана Аникей, Олег Ткачёв, Надежда Анципович, Алла Ельяшевич, Игорь Петров , Светлана Никифорова

>О фильме:
Успешный кардиохирург Альбина Виленская приходит в себя в больнице и узнает, что отец, известный адвокат, умер, лишив ее наследства, жених Игорь бесследно исчез, а сама она пыталась покончить с собой. Расследуя обстоятельства, которые привели к крушению ее жизни, Альбина снова оказывается на краю пропасти. К счастью, на ее пути появляется спаситель, с которым Альбину неожиданно многое связывает.

>Страна: Россия | Марс Медиа
>Продолжительность: ~ 00:47:00
>Язык: Русский

>Файл
>Качество: SATRip-AVC
>Видео: MPEG-4 AVC, ~ 1700 Кбит/с, 720х400
>Звук: AC3, 2 ch, 192 Кбит/с

Общее
Уникальный идентификатор : 194326884254643839284191690730089770317 (0x9231FF1D267D998B8A863388F60C6D4D)
Полное имя : F:Ускользающая жизнь?1 серия_Ускользающая жизнь_rip by_Aleksan55.mkv
Формат : Matroska
Версия формата : Version 2
Размер файла : 644 Мбайт
Продолжительность : 47 м. 31 с.
Общий поток : 1894 Кбит/сек
Дата кодирования : UTC 2018-09-21 10:56:39
Программа кодирования : mkvmerge v7.8.0 ('River Man') 32bit built on Apr 3 2015 12:11:22
Библиотека кодирования : libebml v1.3.1 + libmatroska v1.4.2

Видео
Идентификатор : 1
Формат : AVC
Формат/Информация : Advanced Video Codec
Профиль формата : High@L4.1
Параметр CABAC формата : Да
Параметр ReFrames формата : 14 кадров
Идентификатор кодека : V_MPEG4/ISO/AVC
Продолжительность : 47 м. 31 с.
Битрейт : 1700 Кбит/сек
Ширина : 720 пикселей
Высота : 400 пикселей
Соотношение сторон : 16:9
Режим частоты кадров : Постоянный
Частота кадров : 25,000 кадров/сек
Цветовое пространство : YUV
Субдискретизация насыщенности : 4:2:0
Битовая глубина : 8 бит
Тип развёртки : Прогрессивная
Бит/(Пиксели*Кадры) : 0.236
Размер потока : 566 Мбайт (88%)
Библиотека кодирования : x264 core 146 r2538 121396c
Настройки программы : cabac=1 / ref=14 / deblock=1:-1:-1 / analyse=0x3:0x133 / me=umh / subme=9 / psy=1 / psy_rd=0.90:0.15 / mixed_ref=0 / me_range=32 / chroma_me=1 / trellis=2 / 8x8dct=1 / cqm=0 / deadzone=21,11 / fast_pskip=1 / chroma_qp_offset=-3 / threads=12 / lookahead_threads=1 / sliced_threads=0 / nr=0 / decimate=0 / interlaced=0 / bluray_compat=0 / constrained_intra=0 / bframes=14 / b_pyramid=2 / b_adapt=1 / b_bias=0 / direct=3 / weightb=1 / open_gop=0 / weightp=2 / keyint=250 / keyint_min=25 / scenecut=40 / intra_refresh=0 / rc_lookahead=40 / rc=2pass / mbtree=1 / bitrate=1700 / ratetol=1.0 / qcomp=0.60 / qpmin=0 / qpmax=39 / qpstep=4 / cplxblur=20.0 / qblur=0.5 / ip_ratio=1.40 / aq=1:1.00
Default : Да
Forced : Нет
Цветовой диапазон : Limited
Основные цвета : BT.601 PAL
Характеристики трансфера : BT.470 System B, BT.470 System G
Коэффициенты матрицы : BT.601

Аудио
Идентификатор : 2
Формат : AC-3
Формат/Информация : Audio Coding 3
Расширение режима : CM (complete main)
Параметр Endianness формата : Big
Идентификатор кодека : A_AC3
Продолжительность : 47 м. 31 с.
Вид битрейта : Постоянный
Битрейт : 192 Кбит/сек
Каналы : 2 канала
Расположение каналов : Front: L R
Частота : 48,0 КГц
Частота кадров : 31,250 кадров/сек (1536 spf)
Битовая глубина : 16 бит
Метод сжатия : С потерями
Размер потока : 65,3 Мбайт (10%)
Default : Да
Forced : Нет
Источник http://BlaTor.org

Еще никто не оставлял запись к записи скачать торрент Ускользающая жизнь Наследство . Будь первым!

!Обратная связь