Скачать через торрент Сокровища Ермака Фильм бесплатно в хорошем качестве torrent

Скачивайте на UnionPeer.org фильмы через торрент без регистрации. Новинки кино в хорошем качестве через торрент. На UnionPeer.org можно скачать через торрент фильмы 2014 и 2015 годов. Самые новые фильмы.

Скачать торрент Сокровища Ермака бесплатно через .torrent фильм мультфильм сериал

 
Автор Сообщение

Galfimbul

avatar Galfimbul


Сокровища Ермака



[b]Год выпуска:
2018
Жанр: Семейный, приключения
Режиссёр: Олег Денисов
В ролях: Георгий Кальдин, Мария Полиенко, Владимир Грамматиков, Артем Лещик, Александр Кононец, Ирина Горячева, Полина Воробьева, Роман Грибков, Сергей Гамов

Описание:
После того, как одиннадцатилетний пермский школьник Костя, самозабвенно влюбленный в археологию, находит на учебных раскопках древний ларец Строгановых с картой, начинается настоящая охота за легендарным кладом Ермака. Карта оказывается моментально похищенной бандитами. Но у Кости остаются фотография карты и ключ, о существовании которого бандиты уже догадались. Мальчик отправляется на поиски сокровищ, предварительно убедив родителей, что всего лишь едет в деревню к бабушке. Когда-то из-за этого клада погиб дед мальчика, известный археолог, и Костя решительно настроен осуществить его мечту. Неожиданно для Кости, вместе с ним увязывается Маша, девочка-сорванец, сбежавшая из дома. Вдвоем дети умудряются скрываться и от бандитов, и от полиции, проявляя чудеса изобретательности и медленно, но верно, шаг за шагом, приближаясь к кладу.



Страна: Россия
Студия: ТПО Рок
Продолжительность: 01:28:13
Язык: Русский

Файл
Формат: MKV
Качество: WEB-DL 1080p
Видео: 1920x1012 (1,897:1), 25 fps, MPEG-4 AVC ~ 5149 kbps avg, 0.106 bit/pixel
Звук: AC3, 48 kHz, 6 ch, ~384.00 kbps avg | русский | iTunes

Субтитры: Отсутствуют
Общее
Уникальный идентификатор : 251198398677033552053367425183621101466 (0xBCFB0D42BA1845315204AD6A78F8B79A)
Полное имя : SOKROVISHA_ERMAKA (2018) WEB-DL_1080p.mkv
Формат : Matroska
Версия формата : Version 4 / Version 2
Размер файла : 3,41 Гбайт
Продолжительность : 1 ч. 28 м.
Общий поток : 5535 Кбит/сек
Дата кодирования : UTC 2018-10-04 06:12:51
Программа кодирования : mkvmerge v27.0.0 ('Metropolis') 64-bit
Библиотека кодирования : libebml v1.3.6 + libmatroska v1.4.9

Видео
Идентификатор : 1
Формат : AVC
Формат/Информация : Advanced Video Codec
Профиль формата : High@L4
Настройки формата : CABAC / 4 Ref Frames
Параметр CABAC формата : Да
Параметр RefFrames формата : 4 кадра
Идентификатор кодека : V_MPEG4/ISO/AVC
Продолжительность : 1 ч. 28 м.
Битрейт : 5149 Кбит/сек
Ширина : 1920 пикселей
Высота : 1012 пикселей
Соотношение сторон : 1,897
Режим частоты кадров : Постоянный
Частота кадров : 25,000 кадров/сек
Цветовое пространство : YUV
Субдискретизация насыщенности : 4:2:0
Битовая глубина : 8 бит
Тип развёртки : Прогрессивная
Бит/(Пиксели*Кадры) : 0.106
Размер потока : 3,17 Гбайт (93%)
Заголовок : SOKROVISHA_ERMAKA (2018) WEB-DL_1080p
Язык : English
Default : Да
Forced : Нет
Цветовой диапазон : Limited
Основные цвета : BT.709
Характеристики трансфера : BT.709
Коэффициенты матрицы : BT.709

Аудио
Идентификатор : 2
Формат : AC-3
Формат/Информация : Audio Coding 3
Идентификатор кодека : A_AC3
Продолжительность : 1 ч. 28 м.
Вид битрейта : Постоянный
Битрейт : 384 Кбит/сек
Каналы : 6 каналов
Расположение каналов : Front: L C R, Side: L R, LFE
Частота : 48,0 КГц
Частота кадров : 31,250 кадров/сек (1536 SPF)
Битовая глубина : 16 бит
Метод сжатия : С потерями
Задержка видео : -40 мс.
Размер потока : 242 Мбайт (7%)
Заголовок : iTunes | SOKROVISHA_ERMAKA (2018) WEB-DL_1080p
Язык : Russian
Default : Да
Forced : Нет

Меню
00:00:00.000 : en:Глава 1
00:06:47.800 : en:Глава 2
00:12:23.440 : en:Глава 3
00:18:07.520 : en:Глава 4
00:24:53.520 : en:Глава 5
00:33:25.760 : en:Глава 6
00:41:08.480 : en:Глава 7
00:48:38.640 : en:Глава 8
00:56:08.440 : en:Глава 9
01:01:28.520 : en:Глава 10
01:07:35.160 : en:Глава 11
01:15:04.920 : en:Глава 12
Источник http://BlaTor.org

Еще никто не оставлял запись к записи скачать торрент Сокровища Ермака . Будь первым!

!Обратная связь