Скачать через торрент Углерод Carbone Фильм бесплатно в хорошем качестве torrent

Скачивайте на UnionPeer.org фильмы через торрент без регистрации. Новинки кино в хорошем качестве через торрент. На UnionPeer.org можно скачать через торрент фильмы 2014 и 2015 годов. Самые новые фильмы.

Скачать торрент Углерод Carbone бесплатно через .torrent фильм мультфильм сериал

Статистика раздачи
Размер:  3.8 GB   |    Зарегистрирован:  1 месяц 1 день   |    .torrent скачан:  144 раза   |   
Раздают:  1  
   
загрузка...
 
Автор Сообщение

Galfimbul

avatar Galfimbul


Информация о фильме
Углерод /Carbone

Год выпуска: 2017
Жанр: Триллер
Режиссер: Оливье Маршаль
В ролях: Бенуа Мажимель, Идир Чендер, Лаура Смет, Микаэль Юн, Дани, Патрик Каталифо, Жерар Депардьё, Мусса Мааскри, Фридерик Эпо

О фильме:
Пытаясь спасти свою компанию от разорения, французский бизнесмен Антуан Рока решается на аферу, которая будет названа «мошенничеством века». Ступив на преступную дорожку, Антуан сталкивается с бандитизмом, насилием и предательством.



Страна: Франция, Бельгия
Студия: Canal+ [fr], EuropaCorp
Продолжительность: 01:43:46
Перевод: Профессиональный (многоголосый, закадровый) | HDRezka Studio

Файл
Формат: MKV
Качество: BDRip 720p
Видео: MPEG-4 AVC, 1280x536 (2.40:1), 4425 Kbit/s, 24.000 fps, 0,269 bpp
Аудио 1: AC3, 2 ch, 192 kbps | RUS
Аудио 2: AC3, 6 ch, 640 kbps | FRA
Субтитры: Нет
x264 [info]: frame I:1518 Avg QP:11.86 size:106445
x264 [info]: frame P:24593 Avg QP:14.90 size: 48069
x264 [info]: frame B:123321 Avg QP:15.99 size: 16964

Format : Matroska
Format version : Version 4
File size : 3,80 Гбайт
Duration : 1 ч. 43 м.
Overall bit rate : 5248 Кбит/сек
Encoded date : UTC 2018-10-14 14:27:44
Writing application : mkvmerge v25.0.0 ('Prog Noir') 64-bit
Writing library : libebml v1.3.6 + libmatroska v1.4.9

Видео
ID : 1
Format : AVC
Format/Info : Advanced Video Codec
Format profile : High@L4.1
Format settings : CABAC / 9 Ref Frames
Format settings, CABAC : Да
Format settings, RefFrames : 9 кадров
Codec ID : V_MPEG4/ISO/AVC
Duration : 1 ч. 43 м.
Bit rate : 4425 Кбит/сек
Width : 1280 пикселей
Height : 536 пикселей
Display aspect ratio : 2,40:1
Frame rate mode : Постоянный
Frame rate : 24,000 кадра/сек
Color space : YUV
Chroma subsampling : 4:2:0
Bit depth : 8 бит
Scan type : Прогрессивная
Bits/(Pixel*Frame) : 0.269
Stream size : 3,20 Гбайт (84%)
Writing library : x264 core 152 r2851 ba24899
Encoding settings : cabac=1 / ref=9 / deblock=1:-2:-3 / analyse=0x3:0x133 / me=umh / subme=11 / psy=1 / psy_rd=0.90:0.15 / mixed_ref=1 / me_range=48 / chroma_me=1 / trellis=2 / 8x8dct=1 / cqm=0 / deadzone=21,11 / fast_pskip=0 / chroma_qp_offset=-3 / threads=17 / lookahead_threads=1 / sliced_threads=0 / nr=0 / decimate=0 / interlaced=0 / bluray_compat=0 / constrained_intra=0 / bframes=10 / b_pyramid=2 / b_adapt=1 / b_bias=0 / direct=3 / weightb=1 / open_gop=0 / weightp=2 / keyint=240 / keyint_min=24 / scenecut=40 / intra_refresh=0 / rc_lookahead=40 / rc=2pass / mbtree=0 / bitrate=4425 / ratetol=1.0 / qcomp=0.60 / qpmin=0 / qpmax=69 / qpstep=4 / cplxblur=20.0 / qblur=0.5 / vbv_maxrate=50000 / vbv_bufsize=62500 / nal_hrd=none / filler=0 / ip_ratio=1.40 / pb_ratio=1.30 / aq=1:1.00
Language : English
Default : Да
Forced : Нет

Аудио #1
ID : 2
Format : AC-3
Format/Info : Audio Coding 3
Commercial name : Dolby Digital
Codec ID : A_AC3
Duration : 1 ч. 43 м.
Bit rate mode : Постоянный
Bit rate : 192 Кбит/сек
Channel(s) : 2 канала
Channel layout : L R
Sampling rate : 48,0 КГц
Frame rate : 31,250 кадров/сек (1536 SPF)
Bit depth : 16 бит
Compression mode : С потерями
Stream size : 143 Мбайт (4%)
Title : HDRezka Studio
Language : Russian
Service kind : Complete Main
Default : Да
Forced : Нет

Аудио #2
ID : 3
Format : AC-3
Format/Info : Audio Coding 3
Commercial name : Dolby Digital
Codec ID : A_AC3
Duration : 1 ч. 43 м.
Bit rate mode : Постоянный
Bit rate : 640 Кбит/сек
Channel(s) : 6 каналов
Channel layout : L R C LFE Ls Rs
Sampling rate : 48,0 КГц
Frame rate : 31,250 кадров/сек (1536 SPF)
Bit depth : 16 бит
Compression mode : С потерями
Stream size : 475 Мбайт (12%)
Title : Original
Language : French
Service kind : Complete Main
Default : Нет
Forced : Нет

Меню
00:00:00.000 : en:Chapter 1
00:12:40.416 : en:Chapter 2
00:19:00.875 : en:Chapter 3
00:26:20.791 : en:Chapter 4
00:32:54.250 : en:Chapter 5
00:40:51.333 : en:Chapter 6
00:49:00.416 : en:Chapter 7
00:56:46.125 : en:Chapter 8
01:06:02.833 : en:Chapter 9
01:15:08.375 : en:Chapter 10
01:22:33.958 : en:Chapter 11
01:30:07.833 : en:Chapter 12
Источник http://BlaTor.org

Трекер:  [ 14-Окт-2018 19:10 ]

  

Скачать .torrent

Размер .torrent файла 19 KB


Размер: 3.8 GB
Хэш (hash) релиза: 650bd821a9d523b7061450252d20cd0dfd333dc7
Подписка на обновления:

Торренты, похожие на Углерод Carbone скачать торрент

Форум Название Автор Размер S L Добавлен
Зарубежные фильмы 2016-2018 (Новинки зарубежного кино) ·%· Углерод / Carbone (2017) BDRip 1080p от OlLanDGroup | HDrezka Studio Galfimbul 71884485116.69 GB 0 0 1539551457

00:10

15-Окт-18

Зарубежные фильмы 2016-2018 (Новинки зарубежного кино) ·%· Углерод / Carbone (2017) BDRip 1080р | HDRezka Studio Galfimbul 79508758817.4 GB 0 0 1539513612

13:40

14-Окт-18

Зарубежные фильмы 2016-2018 (Новинки зарубежного кино) ·%· Углерод / Carbone (2017) BDRip 1080р | HDRezka Studio Galfimbul 19974977071.86 GB 0 0 1539493808

08:10

14-Окт-18

Зарубежные фильмы 2016-2018 (Новинки зарубежного кино) ·%· Углерод / Carbone (2017) BDRip | HDRezka Studio Galfimbul 15712727041.46 GB 0 0 1539484231

05:30

14-Окт-18

Зарубежные сериалы ·%· Видоизмененный углерод / Altered Carbon / Сезон: 1 / Серии: 1-10 из 10 (Ута Бризвитц, Питер Хор, Ник Харран) [2018, США, фантастика, триллер, драма, WEB-DLRip] MVO (Alexfilm) Galfimbul 99215360009.24 GB 0 0 1532233090

07:18

22-Июл-18

Зарубежные сериалы ·%· Видоизмененный углерод / Altered Carbon / Сезон: 1 / Серии: 1-10 из 10 (Мигель Сапочник) [2018, США, Фантастика, боевик, WEBRip 720p] MVO (Good People) + Original Galfimbul 68036546566.34 GB 0 0 1531322295

18:18

11-Июл-18

Зарубежные сериалы ·%· Видоизмененный углерод / Altered Carbon / Сезон: 1 / Серии: 1-10 из 10 (Мигель Сапочник) [2018, США, Фантастика, боевик, WEBRip 720p] MVO (Good People) + Original + Sub (Eng) Galfimbul 1085243604710.11 GB 0 0 1531284504

07:48

11-Июл-18

Зарубежные сериалы ·· Видоизменённый углерод / Altered Carbon / Сезон: 1 / Серии: 1-10 из 10 (Ута Бризвитц, Алекс Грейвз, Питер Хор) [2018, США, фантастика, триллер, драма, WEBRip] DVO (Кубик в Кубе) + Original Galfimbul 74835046406.97 GB 0 0 1529189286

01:48

17-Июн-18

Зарубежные сериалы ·· Видоизменённый углерод / Altered Carbon / Сезон: 1 / Серии: 1-7 из 10 (Ута Бризвитц, Алекс Грейвз, Питер Хор) [2018, США, фантастика, триллер, драма, WEBRip 1080p] DVO (Кубик в Кубе) + Original + Subs (Rus, Eng) Galfimbul 3447462595932.11 GB 0 0 1520115879

01:24

4-Мар-18

Зарубежные сериалы ·· Видоизменённый углерод / Altered Carbon / Сезон: 1 / Серии: 1-7 из 10 (Ута Бризвитц, Алекс Грейвз, Питер Хор) [2018, США, фантастика, триллер, драма, WEBRip 720p] DVO (Кубик в Кубе) + Original + Subs (Rus, Eng) Galfimbul 1701434775915.85 GB 0 0 1520114073

00:54

4-Мар-18

Зарубежные сериалы ·· Видоизмененный углерод / Altered Carbon / Сезон: 1 / Серии: 1-8 из 8 (Джеймс Уоткинс) [2018, США, Фантастика, триллер, драма, WEBRip 720p] MVO (AMS) + Original Eng Galfimbul 2444756139622.77 GB 0 0 1519901698

13:54

1-Мар-18

Зарубежные сериалы ·· Видоизмененный углерод / Altered Carbon / Сезон: 1 / Серии: 1-10 из 10 (Ута Бризвитц, Питер Хор, Ник Харран) [2018, США, фантастика, триллер, драма, WEBRip] MVO (Jaskier) + Original Galfimbul 68123586566.34 GB 0 0 1519831629

18:27

28-Фев-18

Зарубежные сериалы ·· Видоизмененный углерод / Altered Carbon / Сезон: 1 / Серии: 1-10 из 10 (Ута Бризвитц, Питер Хор, Ник Харран) [2018, США, фантастика, триллер, драма, WEBRip 1080p] MVO (Jaskier) + Original + Sub Eng Galfimbul 4909285916245.72 GB 0 0 1519829708

17:55

28-Фев-18

Зарубежные сериалы ·· Видоизмененный углерод / Altered Carbon / Сезон: 1 / Серии: 1-10 из 10 (Ута Бризвитц, Питер Хор, Ник Харран) [2018, США, фантастика, триллер, драма, WEBRip 720p] MVO (Jaskier) + Original + Sub Eng Galfimbul 2396037378722.31 GB 0 0 1519829695

17:54

28-Фев-18

Зарубежные сериалы ·· Видоизмененный углерод / Altered Carbon / Сезон: 1 / Серии: 1-4 из 10 (Ута Бризвитц / Uta Briesewitz) [2018, США, фантастика, WEBRip] MVO (AlexFilm) + Original (Eng) + Sub (Eng) Galfimbul 44885866424.18 GB 0 0 1518276179

18:22

10-Фев-18

Зарубежные сериалы ·· Видоизмененный углерод / Altered Carbon / Сезон: 1 / Серии: 1-1 из 10 (Мигель Сапочник, Энди Годдард, Алекс Грейвз, Ута Бризвитц, Питер Хор, Ник Харран) [2018, США, научная фантастика, драма, трилер, киберпанк, WEBRip 1080p] VO (BlablaFilm) Galfimbul 59990785155.59 GB 0 0 1518270881

16:54

10-Фев-18

Зарубежные сериалы ·· (Score) Видоизменённый углерод / Altered Carbon (by Jeff Russo) - 2018, MP3, 320 kbps Galfimbul 6907683666 MB 0 0 1518125219

00:26

9-Фев-18

Зарубежные сериалы ·· Видоизмененный углерод / Altered Carbon / Сезон: 1 / Серии: 1-10 из 10 (Мигель Сапочник, Энди Годдард, Алекс Грейвз, Ута Бризвитц) [2018, США, научная фантастика, драма, трилер, киберпанк, WEB-DL 720p] DVO (Gears Media) + Original Galfimbul 105997970839.87 GB 0 0 1517952270

00:24

7-Фев-18

Зарубежные сериалы ·· Видоизмененный углерод / Altered Carbon / Сезон: 1 / Серии: 1 из 10 (Ута Бризвитц) [2018, США, фантастика, триллер, драма, WEBRip 1080p] MVO (LostFilm, Alexfilm, NewStudio, Omskbird, Baibako) + DVO (Gears media) + Original + Subs (Rus, Eng) Galfimbul 64352124375.99 GB 0 0 1517937940

20:25

6-Фев-18

Еще никто не оставлял запись к записи скачать торрент Углерод Carbone . Будь первым!

!Обратная связь