Скачать через торрент Альфа Alpha Фильм бесплатно в хорошем качестве torrent

Скачивайте на UnionPeer.org фильмы через торрент без регистрации. Новинки кино в хорошем качестве через торрент. На UnionPeer.org можно скачать через торрент фильмы 2014 и 2015 годов. Самые новые фильмы.

Скачать торрент Альфа Alpha бесплатно через .torrent фильм мультфильм сериал

Статистика раздачи
Размер:  3.68 GB   |    Зарегистрирован:  22 дня   |    .torrent скачан:  707 раз   |   
Раздают:  1  
   
загрузка...
 
Автор Сообщение

Galfimbul

avatar Galfimbul


Альфа /Alpha

Год выхода: 2018
Жанр: Драма, приключения, семейный
Режиссер: Альберт Хьюз
В ролях: Коди Смит-МакФи, Наташа Мальте, Леонор Варела, Йоуханнес Хёйкьюр Йоуханнессон, Йенс Хультен, Мерседес Де Ла Зерда, Прия Раджаратнам, Спенсер Богерт, Патрик Флэнеган, Майкл Круз Даль



О фильме: 20 000 лет назад Земля была холодным и неуютным местом, в котором смерть подстерегала человека на каждом шагу, а жизнь зависела от того, удалось ли загнать добычу или нет. Молодой охотник из племени, которое по уровню жизни и культуры было одним из самых развитых на планете, оказывается один на один с враждебным миром, полным смертельных опасностей. Ему предстоит заглянуть в лицо своим страхам и найти дорогу домой. И возможно, от исхода его путешествия зависит судьба всего человечества.

Страна: США
Студия: Studio 8
Продолжительность: 01:36:30
Перевод: Многоголосый закадровый | iTunes

Качество: WEB-DL 1080p
Видео: MPEG-4 AVC, 1920x800, 4556 Kbit/s, 23.976 fps
Звук:
Аудио #01: 48 kHz, AC3, 5.1, 384 Kbps | iTunes | RUS |
Аудио #02: 48 kHz, AAC, 2.0, 127 Kbps | iTunes | UKR |
Аудио #03: 48 kHz, AC3, 5.1, 384 Kbps | Оригинал | ENG |
Субтитры: Русские (Forced, full), украинские (Full), английские

General
Unique ID : 199583753637594504110333027122906634015 (0x96266EC8FDC9FCC1EDF12350B363971F)
Complete name : D:Video111Alpha.2018.1080p.WEB-DL.TeamHD.mkv
Format : Matroska
Format version : Version 4
File size : 3.68 GiB
Duration : 1 h 36 min
Overall bit rate : 5 454 kb/s
Movie name : Alpha 2018 TeamHD-селезень
Encoded date : UTC 2018-10-25 18:27:58
Writing application : mkvmerge v28.0.0 ('Voice In My Head') 64-bit
Writing library : libebml v1.3.6 + libmatroska v1.4.9

Video
ID : 1
Format : AVC
Format/Info : Advanced Video Codec
Format profile : High@L4
Format settings : CABAC / 5 Ref Frames
Format settings, CABAC : Yes
Format settings, ReFrames : 5 frames
Codec ID : V_MPEG4/ISO/AVC
Duration : 1 h 36 min
Bit rate : 4 556 kb/s
Width : 1 920 pixels
Height : 800 pixels
Display aspect ratio : 2.40:1
Frame rate mode : Constant
Frame rate : 23.976 FPS
Color space : YUV
Chroma subsampling : 4:2:0
Bit depth : 8 bits
Scan type : Progressive
Bits/(Pixel*Frame) : 0.124
Stream size : 3.07 GiB (84%)
Language : English
Default : Yes
Forced : No
Color range : Limited
Color primaries : BT.709
Transfer characteristics : BT.709
Matrix coefficients : BT.709

Audio #1
ID : 2
Format : AC-3
Format/Info : Audio Coding 3
Commercial name : Dolby Digital
Codec ID : A_AC3
Duration : 1 h 36 min
Bit rate mode : Constant
Bit rate : 384 kb/s
Channel(s) : 6 channels
Channel layout : L R C LFE Ls Rs
Sampling rate : 48.0 kHz
Frame rate : 31.250 FPS (1536 SPF)
Bit depth : 16 bits
Compression mode : Lossy
Stream size : 265 MiB (7%)
Title : iTunes
Language : Russian
Service kind : Complete Main
Default : Yes
Forced : Yes

Audio #2
ID : 3
Format : AAC LC
Format/Info : Advanced Audio Codec Low Complexity
Codec ID : A_AAC-2
Duration : 1 h 36 min
Bit rate : 127 kb/s
Channel(s) : 2 channels
Channel layout : L R
Sampling rate : 48.0 kHz
Frame rate : 46.875 FPS (1024 SPF)
Compression mode : Lossy
Stream size : 87.7 MiB (2%)
Title : iTunes
Language : Ukrainian
Default : No
Forced : No

Audio #3
ID : 4
Format : AC-3
Format/Info : Audio Coding 3
Commercial name : Dolby Digital
Codec ID : A_AC3
Duration : 1 h 36 min
Bit rate mode : Constant
Bit rate : 384 kb/s
Channel(s) : 6 channels
Channel layout : L R C LFE Ls Rs
Sampling rate : 48.0 kHz
Frame rate : 31.250 FPS (1536 SPF)
Bit depth : 16 bits
Compression mode : Lossy
Stream size : 265 MiB (7%)
Title : Original
Language : English
Service kind : Complete Main
Default : No
Forced : No

Text #1
ID : 5
Format : UTF-8
Codec ID : S_TEXT/UTF8
Codec ID/Info : UTF-8 Plain Text
Duration : 1 h 34 min
Bit rate : 0 b/s
Count of elements : 4
Stream size : 139 Bytes (0%)
Title : Forced
Language : Russian
Default : Yes
Forced : Yes

Text #2
ID : 6
Format : UTF-8
Codec ID : S_TEXT/UTF8
Codec ID/Info : UTF-8 Plain Text
Duration : 1 h 34 min
Bit rate : 10 b/s
Count of elements : 214
Stream size : 7.42 KiB (0%)
Title : Full
Language : Russian
Default : No
Forced : No

Text #3
ID : 7
Format : UTF-8
Codec ID : S_TEXT/UTF8
Codec ID/Info : UTF-8 Plain Text
Duration : 1 h 34 min
Bit rate : 11 b/s
Count of elements : 219
Stream size : 8.08 KiB (0%)
Title : Full
Language : Ukrainian
Default : No
Forced : No

Text #4
ID : 8
Format : UTF-8
Codec ID : S_TEXT/UTF8
Codec ID/Info : UTF-8 Plain Text
Duration : 1 h 24 min
Bit rate : 6 b/s
Count of elements : 214
Stream size : 4.31 KiB (0%)
Title : Full
Language : English
Default : No
Forced : No

Menu
00:00:00.000 : en:1
00:07:43.713 : en:2
00:10:56.071 : en:3
00:16:56.639 : en:4
00:21:43.299 : en:5
00:25:54.967 : en:6
00:32:36.618 : en:7
00:38:19.251 : en:8
00:42:37.383 : en:9
00:47:54.323 : en:10
00:54:07.404 : en:11
00:59:27.222 : en:12
01:07:08.975 : en:13
01:14:08.727 : en:14
01:18:56.264 : en:15
01:25:42.294 : en:16
Источник http://BlaTor.org

Трекер:  [ 25-Окт-2018 23:10 ]

  

Скачать .torrent

Размер .torrent файла 74 KB


Размер: 3.68 GB
Хэш (hash) релиза: 05896ea63e486bdd3a208270d1ffad2a5aebba18
Подписка на обновления:

Торренты, похожие на Альфа Alpha скачать торрент

Форум Название Автор Размер S L Добавлен
Зарубежные фильмы 2016-2018 (Новинки зарубежного кино) ·%· Альфа / Alpha (2018) HDRip от Kaztorrents | КПК | iTunes Galfimbul 384740586367 MB 0 0 1541957445

20:30

11-Ноя-18

Зарубежные фильмы 2016-2018 (Новинки зарубежного кино) ·%· Альфа / Alpha (2018) BDRip 1080p от селезень | iTunes Galfimbul 92812211708.64 GB 0 0 1541936492

14:41

11-Ноя-18

Зарубежные фильмы 2016-2018 (Новинки зарубежного кино) ·%· Альфа / Alpha (2018) WEB-DLRip от Scarabey | iTunes Galfimbul 786477056750 MB 0 0 1540737182

17:33

28-Окт-18

Зарубежные фильмы 2016-2018 (Новинки зарубежного кино) ·%· Альфа / Alpha (2018) WEB-DLRip-AVC от Dalemake | iTunes Galfimbul 23091978022.15 GB 0 0 1540582879

22:41

26-Окт-18

Зарубежные фильмы 2016-2018 (Новинки зарубежного кино) ·%· Альфа / Alpha (2018) WEB-DLRip от MegaPeer | iTunes Galfimbul 782041382746 MB 0 0 1540546808

12:40

26-Окт-18

Зарубежные фильмы 2016-2018 (Новинки зарубежного кино) ·%· Альфа / Alpha (2018) WEB-DLRip от GeneralFilm | iTunes Galfimbul 785203200749 MB 0 0 1540529423

07:50

26-Окт-18

Зарубежные сериалы ·· Люди Альфа / Alphas / Сезон: 1 / Серии: 1-11 (11) (Ник Копус, Мэттью Хатингс) [2011, США, фантастика, боевик, триллер, драма, WEB-DL(AMZN) 1080p] MVO (LostFilm) Galfimbul 4342991294340.45 GB 0 0 1514195740

12:55

25-Дек-17

Зарубежные сериалы ·· Люди Альфа / Alphas / Сезон: 2 / Серии: 1-13 (13) (Ник Копус, Мэттью Хатингс) [2012, США, фантастика, боевик, триллер, драма, WEB-DL(AMZN) 1080p] MVO (LostFilm) Galfimbul 4855623250145.22 GB 0 0 1514195726

12:55

25-Дек-17

Зарубежные сериалы ·· Люди Альфа / Alphas / Сезон: 1 / Серии: 1-24 из 24 (Ник Копус, Мэттью Хатингс, Лесли Либман) [2011, фантастика, боевик, триллер, драма, WEB-DLRip] MVO (LostFilm) + Original Galfimbul 1290492723212.02 GB 0 0 1423276477

05:34

7-Фев-15

Зарубежные сериалы ·· Люди Альфа / Alphas / Сезон 1, Серии 1-11 (11) (Зак Пенн) [2011, фантастика, боевик, триллер, 1080i HDTV] (DD 5.1 LostFilm) L 5318831647649.54 GB 0 0 1336795620

07:07

12-Май-12

Зарубежные сериалы ·· Люди Альфа / Alphas / Сезон 1 / Серии 1-11 из 11 (Джек Бендер, Ник Копус, Карен Гавиола) [2011 г., фантастика, боевик, триллер, драма, WEB-DLRip] MVO (LostFilm) + Original Phoenix 96763421339.01 GB 0 0 1317557978

15:19

2-Окт-11

Зарубежные сериалы ·· Люди Альфа / Alphas / Сезон: 1 / Серии: 1-11 из 11 (Джек Бендер, Ник Копус, Карен Гавиола) [2011, фантастика, боевик, триллер, драма, WEB-DLRip] (LostFilm) Phoenix 57590435845.36 GB 0 0 1317282493

10:48

29-Сен-11

Зарубежные сериалы ·· Люди Альфа / Alphas / Сезон: 1 / Серии: 1-11 из 11 (Джек Бендер, Ник Копус, Карен Гавиола) [2011, фантастика, боевик, триллер, драма, WEB-DL 720p] MVO [LostFilm] Phoenix 1839985864517.14 GB 0 0 1317282235

10:43

29-Сен-11

Мультфильмы до 2016 ·· Проект Альфа / Яблочное зёрнышко Альфа / Appleseed Alpha (Синдзи Арамаки) [2014, аниме, мультфильм, приключения, BDRemux] Galfimbul 2012571861618.74 GB 0 0 1431453852

21:04

12-Май-15

Мультфильмы до 2016 ·· Проект Альфа / Яблочное зёрнышко Альфа / Appleseed Alpha (Синдзи Арамаки) [2014, аниме, мультфильм, приключения, BDRip 720p] Galfimbul 46483817654.33 GB 0 0 1410921127

05:32

17-Сен-14

Мультфильмы до 2016 ·· Проект Альфа / Яблочное зёрнышко Альфа / Appleseed Alpha (Синдзи Арамаки) [2014, аниме, мультфильм, приключения, BDRip 720p] iTunes Galfimbul 45484238904.24 GB 0 0 1409232646

16:30

28-Авг-14

Мультфильмы до 2016 ·· Проект Альфа / Яблочное зёрнышко Альфа / Appleseed Alpha (Синдзи Арамаки) [2014, аниме, мультфильм, приключения, HDRip] [iTunes] Galfimbul 14674862081.37 GB 0 0 1409229064

15:31

28-Авг-14

Зарубежные фильмы до 2016 ·· Альфа Дог / Alpha Dog (Ник Кассаветис / Nick Cassavetes) [2006, США, драма, криминал, HDTV 1080i] Dub Galfimbul 1965942188418.31 GB 0 0 1495200330

16:25

19-Май-17

Мультфильмы до 2016 ·· Альфа и Омега 7: Большое обледенение / Alpha and Omega 7: The Big Fureeze (Тим Молтби / Tim Maltby) [2016, мультфильм, боевик, комедия, приключения, семейный, WEB-DL 720p] DUB + ENG + SUB (eng) Galfimbul 15520962571.45 GB 0 0 1490041834

23:30

20-Мар-17

Еще никто не оставлял запись к записи скачать торрент Альфа Alpha . Будь первым!

!Обратная связь