Скачать через торрент Владыка времени Фильм бесплатно в хорошем качестве torrent

Скачивайте на UnionPeer.org фильмы через торрент без регистрации. Новинки кино в хорошем качестве через торрент. На UnionPeer.org можно скачать через торрент фильмы 2014 и 2015 годов. Самые новые фильмы.

Скачать торрент Владыка времени бесплатно через .torrent фильм мультфильм сериал

Статистика раздачи
Размер:  1.37 GB   |    Зарегистрирован:  21 день   |    .torrent скачан:  231 раз   |   
Раздают:  1  
   
загрузка...
 
Автор Сообщение

Galfimbul

avatar Galfimbul


Владыка времени



[b]Год выпуска:
2015
Страна: Россия
Жанр: фэнтези, приключения
Перевод: Не требуется [Русский]
Продолжительность: 01:32:15
Режиссер: Александр Баршак
В ролях: Андрей Смоляков, Кирилл Ермичев, Станислав Тикунов, Виктория Заболотная, Рина Гришина, Сергей Сосновский, Виталий Вашедский, Максим Юдин, Александр Числов (юродливый), Денис Гуторов (Денис, бармен)
Описание:
В секретной Школе на протяжении нескольких лет готовят четверых «универсальных солдат» в возрасте от 18 до 20 лет. Они должны переместиться в эпоху Царя Ивана Грозного и предотвратить трагическую смерть его старшего сына Ивана, случившуюся 16-го ноября 1581 года. Таким образом, будет нарушен ход исторических событий. Царевич станет следующим Царём. Не будет Великой смуты, польской интервенции, не придут к власти Романовы, а следовательно удастся избежать революции 1917 года и Россия станет совершенно иным государством.
Рейтинг:
Качество: WEB-DLRip
Формат: AVI
Видео: XviD, 720x304 (2.37:1), 1731 kbps, 25 fps, 0,316 bpp
Аудио: AC3 / 5.1 / 48 kHz / 384 kbps /
Сэмпл
General
Complete name : D:Vladyka.Vremeni.2015.WEB-DLRip.avi
Format : AVI
Format/Info : Audio Video Interleave
File size : 1.37 GiB
Duration : 1 h 32 min
Overall bit rate : 2 125 kb/s
Writing application : VirtualDubModRus 1.5.10.2 (build 2542/release)
Writing library : VirtualDubMod build 2542/release

Video
ID : 0
Format : MPEG-4 Visual
Format profile : Advanced Simple@L5
Format settings, BVOP : 1
Format settings, QPel : No
Format settings, GMC : No warppoints
Format settings, Matrix : Custom
Codec ID : XVID
Codec ID/Hint : XviD
Duration : 1 h 32 min
Bit rate : 1 732 kb/s
Width : 720 pixels
Height : 304 pixels
Display aspect ratio : 2.35:1
Frame rate : 25.000 FPS
Color space : YUV
Chroma subsampling : 4:2:0
Bit depth : 8 bits
Scan type : Progressive
Compression mode : Lossy
Bits/(Pixel*Frame) : 0.316
Stream size : 1.12 GiB (81%)
Writing library : XviD 73

Audio
ID : 1
Format : AC-3
Format/Info : Audio Coding 3
Mode extension : CM (complete main)
Format settings, Endianness : Big
Codec ID : 2000
Duration : 1 h 32 min
Bit rate mode : Constant
Bit rate : 384 kb/s
Channel(s) : 6 channels
Channel positions : Front: L C R, Side: L R, LFE
Sampling rate : 48.0 kHz
Frame rate : 31.250 FPS (1536 spf)
Compression mode : Lossy
Stream size : 253 MiB (18%)
Alignment : Split accross interleaves
Interleave, duration : 40 ms (1.00 video frame)
Interleave, preload duration : 500 ms
Источник http://BlaTor.org

Трекер:  [ 27-Окт-2018 23:00 ]

  

Скачать .torrent

Размер .torrent файла 14 KB


Размер: 1.37 GB
Хэш (hash) релиза: 63cb3d1f6c80c909bd3da88328cb47c0d458a565
Подписка на обновления:

Торренты, похожие на Владыка времени скачать торрент

Форум Название Автор Размер S L Добавлен
Российские фильмы 2016-2018 (Новинки русского кино) ·%· Владыка времени (2015) WEB-DLRip-AVC Galfimbul 779228173743 MB 0 0 1540825213

18:00

29-Окт-18

Российские фильмы 2016-2018 (Новинки русского кино) ·%· Владыка времени (2015) WEB-DLRip от MegaPeer Galfimbul 15703425601.46 GB 0 0 1540817448

15:50

29-Окт-18

Российские фильмы 2016-2018 (Новинки русского кино) ·%· Владыка времени (2015) WEB-DL 1080p Galfimbul 38024304763.54 GB 0 0 1540810251

13:50

29-Окт-18

Еще никто не оставлял запись к записи скачать торрент Владыка времени . Будь первым!

!Обратная связь