Скачать через торрент Владыка времени Фильм бесплатно в хорошем качестве torrent

Скачивайте на UnionPeer.org фильмы через торрент без регистрации. Новинки кино в хорошем качестве через торрент. На UnionPeer.org можно скачать через торрент фильмы 2014 и 2015 годов. Самые новые фильмы.

Скачать торрент Владыка времени бесплатно через .torrent фильм мультфильм сериал

Статистика раздачи
Размер:  3.54 GB   |    Зарегистрирован:  1 месяц 20 дней   |    .torrent скачан:  228 раз   |   
Раздают:  1  
   
загрузка...
 
Автор Сообщение

Galfimbul

avatar Galfimbul


Владыка времени



[b]Год выпуска:
2015
Страна: Россия
Жанр: фэнтези, приключения
Перевод: Не требуется [Русский]
Продолжительность: 01:32:15
Режиссер: Александр Баршак
В ролях: Андрей Смоляков, Кирилл Ермичев, Станислав Тикунов, Виктория Заболотная, Рина Гришина, Сергей Сосновский, Виталий Вашедский, Максим Юдин, Александр Числов (юродливый), Денис Гуторов (Денис, бармен)
Описание:
В секретной Школе на протяжении нескольких лет готовят четверых «универсальных солдат» в возрасте от 18 до 20 лет. Они должны переместиться в эпоху Царя Ивана Грозного и предотвратить трагическую смерть его старшего сына Ивана, случившуюся 16-го ноября 1581 года. Таким образом, будет нарушен ход исторических событий. Царевич станет следующим Царём. Не будет Великой смуты, польской интервенции, не придут к власти Романовы, а следовательно удастся избежать революции 1917 года и Россия станет совершенно иным государством.
Рейтинг:
Качество: WEB-DL 1080p
Формат: MKV
Видео: AVC, 1920x802 (2.40:1), 5002 kbps, 25 fps, 0,130 bpp
Аудио: AC3 / 5.1 / 48 kHz / 384 kbps /

General
Unique ID : 250050415180987547417821703835023906314 (0xBC1DF54DEDD42B818E743F07C1F1160A)
Complete name : D:Vladyka.vremenie.2015.WEB-DL.(1080p).Getty.mkv
Format : Matroska
Format version : Version 4 / Version 2
File size : 3.54 GiB
Duration : 1 h 32 min
Overall bit rate : 5 496 kb/s
Movie name : Vladyka.vremenie.2015.WEB-DL.(1080p).Getty
Encoded date : UTC 2018-10-18 08:58:07
Writing application : mkvmerge v7.8.0 ('River Man') 32bit built on Mar 27 2015 16:18:02
Writing library : libebml v1.3.1 + libmatroska v1.4.2

Video
ID : 1
Format : AVC
Format/Info : Advanced Video Codec
Format profile : High@L4
Format settings, CABAC : Yes
Format settings, ReFrames : 4 frames
Codec ID : V_MPEG4/ISO/AVC
Duration : 1 h 32 min
Bit rate : 5 002 kb/s
Width : 1 920 pixels
Height : 802 pixels
Display aspect ratio : 2.40:1
Frame rate mode : Constant
Frame rate : 25.000 FPS
Color space : YUV
Chroma subsampling : 4:2:0
Bit depth : 8 bits
Scan type : Progressive
Bits/(Pixel*Frame) : 0.130
Stream size : 3.22 GiB (91%)
Default : Yes
Forced : No

Audio
ID : 2
Format : AC-3
Format/Info : Audio Coding 3
Mode extension : CM (complete main)
Format settings, Endianness : Big
Codec ID : A_AC3
Duration : 1 h 32 min
Bit rate mode : Constant
Bit rate : 384 kb/s
Channel(s) : 6 channels
Channel positions : Front: L C R, Side: L R, LFE
Sampling rate : 48.0 kHz
Frame rate : 31.250 FPS (1536 spf)
Compression mode : Lossy
Stream size : 253 MiB (7%)
Default : Yes
Forced : No
Источник http://BlaTor.org

Трекер:  [ 29-Окт-2018 13:50 ]

  

Скачать .torrent

Размер .torrent файла 18 KB


Размер: 3.54 GB
Хэш (hash) релиза: 12ec751490bfc8a250f6d9123154db38feb2c911
Подписка на обновления:

Торренты, похожие на Владыка времени скачать торрент

Форум Название Автор Размер S L Добавлен
Российские фильмы 2016-2018 (Новинки русского кино) ·%· Владыка времени (2015) WEB-DLRip-AVC Galfimbul 779228173743 MB 0 0 1540825213

18:00

29-Окт-18

Российские фильмы 2016-2018 (Новинки русского кино) ·%· Владыка времени (2015) WEB-DLRip от MegaPeer Galfimbul 15703425601.46 GB 0 0 1540817448

15:50

29-Окт-18

Российские фильмы 2016-2018 (Новинки русского кино) ·%· Владыка времени (2015) WEB-DLRip Galfimbul 14704291841.37 GB 0 0 1540670530

23:02

27-Окт-18

Еще никто не оставлял запись к записи скачать торрент Владыка времени . Будь первым!

!Обратная связь