Скачать через торрент Атака мертвецов: Осовец Фильм бесплатно в хорошем качестве torrent

Скачивайте на UnionPeer.org фильмы через торрент без регистрации. Новинки кино в хорошем качестве через торрент. На UnionPeer.org можно скачать через торрент фильмы 2014 и 2015 годов. Самые новые фильмы.

Скачать торрент Атака мертвецов: Осовец бесплатно через .torrent фильм мультфильм сериал

Статистика раздачи
Размер:  166 MB   |    Зарегистрирован:  1 месяц 1 день   |    .torrent скачан:  87 раз   |   
Раздают:  1  
   
загрузка...
 
Автор Сообщение

Galfimbul

avatar Galfimbul


Атака мертвецов: Осовец



[b]Год выхода:
2018
Жанр: Военный, короткометражный
Режиссер: Василий Чигинский
В ролях: Иван Добронравов, Александр Вдовин, Анвар Либабов, Витас Эйзенах, Ярослав Химченко, Дмитрий Буренков, Алексей Шемес, Роман Фомин, Павел Балабанов, Пётр Ступин, Владимир Дьячков, Артём Кисилев, Максим Сироткин, Сергей Герасин, Денис Нурулин, Вячеслав Душенко

О фильме: Спустя 100 лет тексты учебников, чёрно-белые фото и видеохроники уже не могут убедительно донести до сегодняшнего зрителя все ужасы войны. Фильм «Атака мертвецов. Осовец» основан на реальных событиях и рассказывает историю обороны крепости Осовец. Это не самый известный, но знаковый эпизод сражений Первой мировой.



Страна: Беларусь
Студия: «SerB Production»
Продолжительность: 00:22:59
Перевод: Не требуется
Субтитры: Нет

Файл
Кодек: XviD
Качество: WEBRip
Видео: 720x304 (2.37:1), 25 fps, XviD build 73 ~868 kbps avg, 0.16 bit/pixel
Звук: 44.100 kHz, MPEG Layer 3, 2 ch, ~128.00 kbps avg
General
Complete name : Osovets.2018.WEBRip.Portablius.avi
Format : AVI
Format/Info : Audio Video Interleave
File size : 166 MiB
Duration : 23 min 5 s
Overall bit rate : 1 007 kb/s
Writing application : VirtualDubMod 1.5.10.3 | www.virtualdub-fr.org || (build 2550/release)
Writing library : VirtualDubMod build 2550/release

Video
ID : 0
Format : MPEG-4 Visual
Format profile : Advanced Simple@L5
Format settings, BVOP : 1
Format settings, QPel : No
Format settings, GMC : No warppoints
Format settings, Matrix : Custom
Codec ID : XVID
Codec ID/Hint : XviD
Duration : 23 min 5 s
Bit rate : 869 kb/s
Width : 720 pixels
Height : 304 pixels
Display aspect ratio : 2.35:1
Frame rate : 25.000 FPS
Color space : YUV
Chroma subsampling : 4:2:0
Bit depth : 8 bits
Scan type : Progressive
Compression mode : Lossy
Bits/(Pixel*Frame) : 0.159
Stream size : 143 MiB (86%)
Writing library : XviD 73

Audio
ID : 1
Format : MPEG Audio
Format version : Version 1
Format profile : Layer 3
Codec ID : 55
Codec ID/Hint : MP3
Duration : 23 min 5 s
Bit rate mode : Constant
Bit rate : 128 kb/s
Channel(s) : 2 channels
Sampling rate : 44.1 kHz
Compression mode : Lossy
Stream size : 21.1 MiB (13%)
Alignment : Split accross interleaves
Interleave, duration : 40 ms (1.00 video frame)
Interleave, preload duratio : 500 ms
Writing library : LAME3.99r
Encoding settings : -m s -V 4 -q 2 -lowpass 17 -b 128
Источник http://BlaTor.org

Трекер:  [ 14-Ноя-2018 13:00 ]

  

Скачать .torrent

Размер .torrent файла 13 KB


Размер: 166 MB
Хэш (hash) релиза: 126038e21c65e504e3ea6d6b79590e7bc6e31606
Подписка на обновления:

Торренты, похожие на Атака мертвецов: Осовец скачать торрент

Форум Название Автор Размер S L Добавлен
Российские фильмы 2016-2018 (Новинки русского кино) ·%· Атака мертвецов: Осовец (2018) WEBRip 1080p Galfimbul 236023578225 MB 0 0 1542055301

23:41

12-Ноя-18

Российские фильмы 2016-2018 (Новинки русского кино) ·%· Атака мертвецов: Осовец (2018) WEBRip 1080p Galfimbul 324854484310 MB 0 0 1541967744

23:22

11-Ноя-18

Еще никто не оставлял запись к записи скачать торрент Атака мертвецов: Осовец . Будь первым!

!Обратная связь