Скачать через торрент Ф.О.Т.О.Г.Р.А.Ф. Фильм бесплатно в хорошем качестве torrent

Скачивайте на UnionPeer.org фильмы через торрент без регистрации. Новинки кино в хорошем качестве через торрент. На UnionPeer.org можно скачать через торрент фильмы 2014 и 2015 годов. Самые новые фильмы.

Скачать торрент Ф.О.Т.О.Г.Р.А.Ф. бесплатно через .torrent фильм мультфильм сериал

Статистика раздачи
Размер:  233 MB   |    Зарегистрирован:  27 дней   |    .torrent скачан:  126 раз   |   
Раздают:  1  
   
загрузка...
 
Автор Сообщение

Galfimbul

avatar Galfimbul


Ф.О.Т.О.Г.Р.А.Ф.



[b]Год выхода:
2018
Жанр: боевик, драма, фантастика, короткометражка
Режиссер: Максим Фащенко
В ролях: Александр Родин, Юрий Херувимов

О фильме:
Агент миротворческих сил по прозвищу Фотограф прибывает в Зону отчуждения, чтобы предотвратить катастрофу глобального масштаба.

Страна: Россия
Продолжительность: 00:36:03
Перевод: Оригинал

Файл
Кодек: AVC
Качество: WebRip 720p
Видео: 1280х676, 774 kb/s, 25.000 FPS
Звук: AAC, 2 channels, 126 kb/s, 44.1 kHz
General
Complete name : /home/roma/Відео/СТАЛКЕР фильм 'Ф.О.Т.О.Г.Р.А.Ф.' по игре 'S.T.A.L.K.E.R.'.mp4
Format : MPEG-4
Format profile : Base Media / Version 2
Codec ID : mp42 (isom/mp42)
File size : 233 MiB
Duration : 36 min 3 s
Overall bit rate mode : Variable
Overall bit rate : 903 kb/s
Encoded date : UTC 2018-10-29 03:59:16
Tagged date : UTC 2018-10-29 03:59:16
gsst : 0
gstd : 2163426

Video
ID : 1
Format : AVC
Format/Info : Advanced Video Codec
Format profile : Main@L3.1
Format settings : CABAC / 3 Ref Frames
Format settings, CABAC : Yes
Format settings, ReFrames : 3 frames
Codec ID : avc1
Codec ID/Info : Advanced Video Coding
Duration : 36 min 3 s
Bit rate : 774 kb/s
Width : 1 280 pixels
Height : 676 pixels
Display aspect ratio : 1.893
Frame rate mode : Constant
Frame rate : 25.000 FPS
Color space : YUV
Chroma subsampling : 4:2:0
Bit depth : 8 bits
Scan type : Progressive
Bits/(Pixel*Frame) : 0.036
Stream size : 200 MiB (86%)
Title : ISO Media file produced by Google Inc. Created on: 10/28/2018.
Encoded date : UTC 2018-10-29 03:59:16
Tagged date : UTC 2018-10-29 03:59:16
Color range : Limited
Color primaries : BT.709
Transfer characteristics : BT.709
Matrix coefficients : BT.709
Codec configuration box : avcC

Audio
ID : 2
Format : AAC LC
Format/Info : Advanced Audio Codec Low Complexity
Codec ID : mp4a-40-2
Duration : 36 min 3 s
Bit rate mode : Variable
Bit rate : 126 kb/s
Channel(s) : 2 channels
Channel layout : L R
Sampling rate : 44.1 kHz
Frame rate : 43.066 FPS (1024 SPF)
Compression mode : Lossy
Stream size : 32.4 MiB (14%)
Title : ISO Media file produced by Google Inc. Created on: 10/28/2018.
Language : English
Encoded date : UTC 2018-10-29 03:59:16
Tagged date : UTC 2018-10-29 03:59:16
Источник http://BlaTor.org

Трекер:  [ 18-Ноя-2018 07:30 ]

  

Скачать .torrent

Размер .torrent файла 37 KB


Размер: 233 MB
Хэш (hash) релиза: 8847cc99a854e934766f928bc07af1d14bd40f93
Подписка на обновления:

Торренты, похожие на Ф.О.Т.О.Г.Р.А.Ф. скачать торрент

Форум Название Автор Размер S L Добавлен
Российские фильмы 2016-2018 (Новинки русского кино) ·%· Ф.О.Т.О.Г.Р.А.Ф. (2018) WEBRip от ExKinoRay Galfimbul 334643200319 MB 0 0 1543948920

21:42

4-Дек-18

Российские фильмы 2016-2018 (Новинки русского кино) ·%· Ф.О.Т.О.Г.Р.А.Ф. (2018) WEBRip 1080p Galfimbul 372421227355 MB 0 0 1542525039

10:10

18-Ноя-18

Еще никто не оставлял запись к записи скачать торрент Ф.О.Т.О.Г.Р.А.Ф. . Будь первым!

!Обратная связь