Скачать через торрент Охота на верного Фильм бесплатно в хорошем качестве torrent

Скачивайте на UnionPeer.org фильмы через торрент без регистрации. Новинки кино в хорошем качестве через торрент. На UnionPeer.org можно скачать через торрент фильмы 2014 и 2015 годов. Самые новые фильмы.

Скачать торрент Охота на верного бесплатно через .torrent фильм мультфильм сериал

Статистика раздачи
Размер:  4.88 GB   |    Зарегистрирован:  26 дней   |    .torrent скачан:  61 раз   |   
Раздают:  1  
   
загрузка...
 
Автор Сообщение

Galfimbul

avatar Galfimbul


Оригинальное название: Охота на верного
Год выпуска: 2018
Жанр: Мелодрама
Режиссер: Пётр Степин
В ролях: Екатерина Астахова, Кирилл Запорожский, Дарья Повереннова, Татьяна Янкевич, Евгений Казакевич

О фильме:
После того, как Ольга узнает, что у ее любимого мужчины от жены родился сын и уходить из семьи он не собирается, раздавленная девушка в отчаянии заявляет своей коллеге Тамаре, что все мужчины одинаковы - они все изменяют. Изменяют и женам, и любовницам, причем в тот же момент, как им подвернется шанс. Тамара не соглашается с таким выводом и приводит в пример их нового сотрудника Николая. Он идеальный семьянин, прекрасный отец, надежный и верный муж. Всегда спешит домой и все вечера, выходные и отпуск проводит с женой и детьми. Но Ольга уверена, что все это до поры до времени, ведь верных мужчин в природе не существует. И как только у Николая появится шанс изменить жене, он тут же им воспользуется. А чтобы доказать это, Ольга предлагает коллеге пари – она легко соблазнит этого «верного» и заставит изменить жене…


Страна: Россия
Студия: Фабула Продакшн
Продолжительность: 01:31:13
Язык: Русский

Файл
Кодек: h.264
Качество: HDTV 1080i
Видео: AVC/H.264, 1920x1080 (16:9), ~7095 Kbps
Аудио: MP3, 2 ch, 192 Kbps
Общее
Формат : MPEG-TS
Размер файла : 4,86 Гбайт
Продолжительность : 1 ч. 30 м.
Режим общего битрейта : Переменный
Общий поток : 7668 Кбит/сек

Видео
Идентификатор : 2911 (0xB5F)
Идентификатор меню : 1192 (0x4A8)
Формат : AVC
Формат/Информация : Advanced Video Codec
Профиль формата : High@L4
Настройки формата : CABAC / 4 Ref Frames
Параметр CABAC формата : Да
Параметр RefFrames формата : 4 кадра
Идентификатор кодека : 27
Продолжительность : 1 ч. 30 м.
Битрейт : 7095 Кбит/сек
Ширина : 1920 пикселей
Высота : 1080 пикселей
Соотношение сторон : 16:9
Частота кадров : 25,000 кадров/сек
Цветовое пространство : YUV
Субдискретизация насыщенности : 4:2:0
Битовая глубина : 8 бит
Тип развёртки : MBAFF
Метод сохранения типа развёртки : Чередующиеся поля
Порядок развёртки : Верхнее поле первое
Бит/(Пиксели*Кадры) : 0.137
Размер потока : 4,50 Гбайт (93%)

Аудио
Идентификатор : 2912 (0xB60)
Идентификатор меню : 1192 (0x4A8)
Формат : MPEG Audio
Версия формата : Version 1
Профиль формата : Layer 2
Идентификатор кодека : 3
Продолжительность : 1 ч. 30 м.
Вид битрейта : Постоянный
Битрейт : 192 Кбит/сек
Каналы : 2 канала
Частота : 48,0 КГц
Частота кадров : 41,667 кадра/сек (1152 SPF)
Метод сжатия : С потерями
Задержка видео : -40 мс.
Размер потока : 125 Мбайт (3%)
Язык : Russian
Источник http://BlaTor.org

Трекер:  [ 19-Ноя-2018 08:50 ]

  

Скачать .torrent

Размер .torrent файла 98 KB


Размер: 4.88 GB
Хэш (hash) релиза: dd0b7abacfb52b4b398810678c776a5fed3539c1
Подписка на обновления:

Торренты, похожие на Охота на верного скачать торрент

Форум Название Автор Размер S L Добавлен
Российские фильмы 2016-2018 (Новинки русского кино) ·%· Охота на верного (2018) HDTVRip-AVC от Files-x Galfimbul 14685154291.37 GB 0 0 1542574825

00:00

19-Ноя-18

Российские фильмы 2016-2018 (Новинки русского кино) ·%· Охота на верного (2018) WEBRip от Files-x Galfimbul 14702714881.37 GB 0 0 1542496869

02:21

18-Ноя-18

Еще никто не оставлял запись к записи скачать торрент Охота на верного . Будь первым!

!Обратная связь