Скачать через торрент Газгольдер. Клубаре Фильм бесплатно в хорошем качестве torrent

Скачивайте на UnionPeer.org фильмы через торрент без регистрации. Новинки кино в хорошем качестве через торрент. На UnionPeer.org можно скачать через торрент фильмы 2014 и 2015 годов. Самые новые фильмы.

Скачать торрент Газгольдер. Клубаре бесплатно через .torrent фильм мультфильм сериал

Статистика раздачи
Размер:  3.51 GB   |    Зарегистрирован:  25 дней   |    .torrent скачан:  305 раз   |   
Раздают:  1  
   
загрузка...
 
Автор Сообщение

Galfimbul

avatar Galfimbul


Газгольдер. Клубаре



[b]Год выпуска:
2018
Жанр: Комедия, криминал
Режиссёр: Иван Курский
В ролях: Баста, Евгений Стычкин, Руслан Таркинский, Евгения Щербакова, Михаил Богдасаров, Владимир Сычев, Михаил Горевой, Даша Чаруша, Олег Груз, Сергей Рублев

Описание:
Праздная жизнь известного промоутера Артура заканчивается, когда на него объявляют охоту менты. Артура ставят на счетчик в самое «горячее» время: он ввязался в большую аферу со строительством модного ночного клуба «Клубаре». Его судьба зависла между тюрьмой, смертью и шансом сорвать реальный джекпот. Проблемы Артура набирают обороты. И его план имеет самую неожиданную развязку.!



Страна: Россия
Студия: Gazgolder Records
Продолжительность: 01:48:00
Язык: Русский

Файл
Формат: MKV
Качество: WEB-DL 1080p
Видео: 1920x804 (2,40:1), 24 fps, MPEG-4 AVC ~ 4530 Kbps avg, 0.122 bit/pixel
Аудио: AAC-LC, 48 kHz, 6 ch, ~126.00 kbps avg | русский | iTunes

Субтитры: Отсутствуют
Общее
Уникальный идентификатор : 328056323954533298690345403226843957591 (0xF6CD598ADA1D571A868249ED7716C957)
Полное имя : D:TorrentsЗавершенныеGAZGOLDER_CLUBARE (2018) WEB-DL 1080p.mkv
Формат : Matroska
Версия формата : Version 4 / Version 2
Размер файла : 3,51 Гбайт
Продолжительность : 1 ч. 47 м.
Общий поток : 4658 Кбит/сек
Название фильма : GAZGOLDER_CLUBARE (2018) WEB-DL 1080p
Дата кодирования : UTC 2018-11-22 02:51:33
Программа кодирования : mkvmerge v27.0.0 ('Metropolis') 64-bit
Библиотека кодирования : libebml v1.3.6 + libmatroska v1.4.9

Видео
Идентификатор : 1
Формат : AVC
Формат/Информация : Advanced Video Codec
Профиль формата : High@L4
Настройки формата : CABAC / 5 Ref Frames
Параметр CABAC формата : Да
Параметр RefFrames формата : 5 кадров
Идентификатор кодека : V_MPEG4/ISO/AVC
Продолжительность : 1 ч. 47 м.
Битрейт : 4530 Кбит/сек
Ширина : 1920 пикселей
Высота : 804 пикселя
Соотношение сторон : 2,40:1
Режим частоты кадров : Постоянный
Частота кадров : 24,000 кадра/сек
Цветовое пространство : YUV
Субдискретизация насыщенности : 4:2:0
Битовая глубина : 8 бит
Тип развёртки : Прогрессивная
Бит/(Пиксели*Кадры) : 0.122
Размер потока : 3,42 Гбайт (97%)
Язык : English
Default : Да
Forced : Нет
Цветовой диапазон : Limited
Основные цвета : BT.709
Характеристики трансфера : BT.709
Коэффициенты матрицы : BT.709

Аудио
Идентификатор : 2
Формат : AAC
Формат/Информация : Advanced Audio Codec
Профиль формата : LC
Идентификатор кодека : A_AAC-2
Продолжительность : 1 ч. 47 м.
Битрейт : 126 Кбит/сек
Каналы : 2 канала
Расположение каналов : Front: L R
Частота : 48,0 КГц
Частота кадров : 46,875 кадров/сек (1024 SPF)
Метод сжатия : С потерями
Размер потока : 97,2 Мбайт (3%)
Заголовок : iTunes | GAZGOLDER_CLUBARE (2018) WEB-DL 1080p
Язык : Russian
Default : Да
Forced : Нет

Меню
00:00:00.000 : en:Глава 1
00:08:06.541 : en:Глава 2
00:16:39.082 : en:Глава 3
00:24:50.540 : en:Глава 4
00:33:21.123 : en:Глава 5
00:41:29.331 : en:Глава 6
00:50:02.456 : en:Глава 7
00:58:51.622 : en:Глава 8
01:07:07.622 : en:Глава 9
01:15:27.372 : en:Глава 10
01:24:07.413 : en:Глава 11
01:32:37.413 : en:Глава 12
Источник http://BlaTor.org

Трекер:  [ 22-Ноя-2018 08:10 ]

  

Скачать .torrent

Размер .torrent файла 18 KB


Размер: 3.51 GB
Хэш (hash) релиза: 93c05b546fcc469c24f67b43e598fb3923a201e6
Подписка на обновления:

Торренты, похожие на Газгольдер. Клубаре скачать торрент

Форум Название Автор Размер S L Добавлен
Российские фильмы 2016-2018 (Новинки русского кино) ·%· Газгольдер. Клубаре (2018) WEB-DLRip-AVC от OlLanDGroup | iTunes Galfimbul 781668461745 MB 0 0 1542949211

08:00

23-Ноя-18

Российские фильмы 2016-2018 (Новинки русского кино) ·%· Газгольдер. Клубаре (2018) WEB-DLRip от Generalfilm | КПК | iTunes Galfimbul 430828323411 MB 0 0 1542903654

19:20

22-Ноя-18

Еще никто не оставлял запись к записи скачать торрент Газгольдер. Клубаре . Будь первым!

!Обратная связь