Скачать через торрент Только не они Фильм бесплатно в хорошем качестве torrent

Скачивайте на UnionPeer.org фильмы через торрент без регистрации. Новинки кино в хорошем качестве через торрент. На UnionPeer.org можно скачать через торрент фильмы 2014 и 2015 годов. Самые новые фильмы.

Скачать торрент Только не они бесплатно через .torrent фильм мультфильм сериал

 
Автор Сообщение

Galfimbul

avatar Galfimbul


Только не они



[b]Год выпуска:
2018
Жанр: Комедия
Режиссёр: Александр Бойков
В ролях: Дарья Храмцова, Полина Максимова, Юлия Хлынина, Данил Стеклов, Денис Бузин, Сергей Дубров, Сергей Якимович, Владимир Стеклов, Александр Семчев, Сергей Белоголовцев.

Описание:
Когда мир в опасности, обычно на помощь приходят супергерои. Все знают, что они храбрее, умнее и сильнее нас. Но что, если вселенная решит развлечься, и миссия по спасению человечества ляжет на слабенькие плечи двадцатилетних тусовщиков и пофигистов? Математик, Мажор, Рокер, Стерва, Псих, Блондинка и Неудачница просыпаются после бурной вечеринки с интригующим названием «Конец света» и обнаруживают опустевший полуразрушенный город. На них открыта охота, а на горизонте маячит уже самый настоящий апокалипсис. И остановить его мог бы кто угодно... но только не они!


Страна: Россия
Студия: Art Pictures Studio, BB Production & Promotion
Продолжительность: 01:36:43
Перевод: Не требуется | iTunes
Субтитры: нет

Файл
Формат: avi
Качество: WEB-DLRip
Видео: XviD build 73, 688x288 (2.40:1), 24.000 fps, 940 Kbps (0.198 bit/pixel)
Звук: 48.0 kHz, MP3, 2/0 ch, 128 kbps
General
Complete name : D:RazdachiToljko.Ne.Oni.2018.XviD.WEB-DLRip.745Mb.GeneralFilm.avi
Format : AVI
Format/Info : Audio Video Interleave
File size : 745 MiB
Duration : 1 h 36 min
Overall bit rate : 1 077 kb/s
Writing application : VirtualDubMod 1.5.10.3 | www.virtualdub-fr.org || (build 2550/release)
Writing library : VirtualDubMod build 2550/release

Video
ID : 0
Format : MPEG-4 Visual
Format profile : Advanced Simple@L5
Format settings, BVOP : 1
Format settings, QPel : No
Format settings, GMC : No warppoints
Format settings, Matrix : Custom
Codec ID : XVID
Codec ID/Hint : XviD
Duration : 1 h 36 min
Bit rate : 940 kb/s
Width : 688 pixels
Height : 288 pixels
Display aspect ratio : 2.40:1
Frame rate : 24.000 FPS
Color space : YUV
Chroma subsampling : 4:2:0
Bit depth : 8 bits
Scan type : Progressive
Compression mode : Lossy
Bits/(Pixel*Frame) : 0.198
Stream size : 650 MiB (87%)
Writing library : XviD 73

Audio
ID : 1
Format : MPEG Audio
Format version : Version 1
Format profile : Layer 3
Codec ID : 55
Codec ID/Hint : MP3
Duration : 1 h 36 min
Bit rate mode : Constant
Bit rate : 128 kb/s
Channel(s) : 2 channels
Sampling rate : 48.0 kHz
Compression mode : Lossy
Stream size : 88.5 MiB (12%)
Alignment : Aligned on interleaves
Interleave, duration : 42 ms (1.00 video frame)
Interleave, preload duratio : 504 ms
Writing library : LAME3.99r
Encoding settings : -m s -V 4 -q 2 -lowpass 17 -b 128
Релиз от:
Источник http://BlaTor.org

Еще никто не оставлял запись к записи скачать торрент Только не они . Будь первым!

!Обратная связь