Скачать через торрент Парень из Голливуда, или Необыкновенные приключения Вени Везунчика Фильм бесплатно в хорошем качестве torrent

Скачивайте на UnionPeer.org фильмы через торрент без регистрации. Новинки кино в хорошем качестве через торрент. На UnionPeer.org можно скачать через торрент фильмы 2014 и 2015 годов. Самые новые фильмы.

Скачать торрент Парень из Голливуда, или Необыкновенные приключения Вени Везунчика бесплатно через .torrent фильм мультфильм сериал

Статистика раздачи
Размер:  1.94 GB   |    Зарегистрирован:  17 дней   |    .torrent скачан:  91 раз   |   
Раздают:  1  
   
загрузка...
 
Автор Сообщение

Galfimbul

avatar Galfimbul


Парень из Голливуда, или Необыкновенные приключения Вени Везунчика



[b]Год выхода:
2018
Жанр: комедия, приключения, семейный
Режиссер: Роман Светлов
В ролях: Роман Светлов, Станислав Дужников, Ольга Калашникова, Игорь Гузун, Игорь Гаспарян, Денис Матросов, Екатерина Вуличенко, Анатолий Белый, Екатерина Волкова, Артем Манукян

О фильме: На криминального босса по кличке Антиквар объявлена «охота» со стороны иностранных кредиторов из Италии, Японии, Америки. Охрана принимает решение найти двойника для своего шефа и публично подставить его под удар. Выбор падает на молодого артиста Веню Везунчика. Везунчику делается предложение «сняться в Голливудском блокбастере». Казалось, все идет по намеченному плану. Но кто бы мог подумать, в какие нелепые, порой трагикомические, ситуации могут попасть представители криминального мира, положившись на эксцентричного артиста, которому везет даже в самых безвыходных ситуациях.



Страна: Россия / RFILMSTUDIO
Продолжительность: 01:35:53
Перевод: Не требуется [iTunes]

Файл
Качество: WEB-DLRip-AVC
Формат: MKV
Видео: MPEG-4 AVC, 2550 Кбит/сек, 1024x428
Звук: AC3, 6 ch, 384 Кбит/сек
Субтитры: нет
Дополнительно: Сохранены оригинальные главы (чаптеры)
Общее
Уникальный идентификатор : 115036843450512988846955379121723406591 (0x568B4A47548A1579938897E4C61DF8FF)
Полное имя : F:Диск2. ФИЛЬМЫ СНГПарень из Голливуда (2018)PAREN_HOLLYWOOD (2018) WEB-DL Rip-AVC.mkv
Формат : Matroska
Версия формата : Version 4
Размер файла : 1,94 Гбайт
Продолжительность : 1 ч. 35 м.
Общий поток : 2911 Кбит/сек
Программа кодирования : XviD4PSP 7.0.459 DAILY
Библиотека кодирования : Lavf57.71.100
Авторское право : [#ZsU®]
ErrorDetectionType : Per level 1
Attachments : poster.jpg
ENCODING_INFO : MATROSKA,WEBM > MKV Пользовательский / H264 > X264 ABR 2550kbps HQ / AC3 > AC3 CBR 384kbps
Язык : und

Видео
Идентификатор : 1
Формат : AVC
Формат/Информация : Advanced Video Codec
Профиль формата : High@L4.1
Настройки формата : CABAC / 10 Ref Frames
Параметр CABAC формата : Да
Параметр RefFrames формата : 10 кадров
Идентификатор кодека : V_MPEG4/ISO/AVC
Продолжительность : 1 ч. 35 м.
Битрейт : 2550 Кбит/сек
Ширина : 1024 пикселя
Высота : 428 пикселей
Соотношение сторон : 2,40:1
Режим частоты кадров : Постоянный
Частота кадров : 23,976 (24000/1001) кадра/сек
Цветовое пространство : YUV
Субдискретизация насыщенности : 4:2:0
Битовая глубина : 8 бит
Тип развёртки : Прогрессивная
Бит/(Пиксели*Кадры) : 0.243
Размер потока : 1,65 Гбайт (85%)
Заголовок : PAREN_HOLLYWOOD (2018) WEB-DL 1080p
Библиотека кодирования : x264 core 157 r2901M 7d0ff22
Настройки программы : cabac=1 / ref=11 / deblock=1:-3:-3 / analyse=0x3:0x133 / me=umh / subme=11 / psy=1 / psy_rd=1.00:0.20 / mixed_ref=1 / me_range=32 / chroma_me=1 / trellis=2 / 8x8dct=1 / cqm=0 / deadzone=21,11 / fast_pskip=1 / chroma_qp_offset=-3 / threads=12 / lookahead_threads=1 / sliced_threads=0 / nr=0 / decimate=1 / interlaced=0 / bluray_compat=0 / constrained_intra=0 / bframes=11 / b_pyramid=1 / b_adapt=1 / b_bias=11 / direct=1 / weightb=1 / open_gop=0 / weightp=1 / keyint=240 / keyint_min=24 / scenecut=40 / intra_refresh=0 / rc_lookahead=40 / rc=abr / mbtree=1 / bitrate=2550 / ratetol=1.0 / qcomp=0.60 / qpmin=0 / qpmax=69 / qpstep=4 / ip_ratio=1.40 / aq=1:1.00
Язык : English
Default : Да
Forced : Нет
Цветовой диапазон : Limited
Основные цвета : BT.709
Характеристики трансфера : BT.709
Коэффициенты матрицы : BT.709

Аудио
Идентификатор : 2
Формат : AC-3
Формат/Информация : Audio Coding 3
Коммерческое название : Dolby Digital
Идентификатор кодека : A_AC3
Продолжительность : 1 ч. 35 м.
Вид битрейта : Постоянный
Битрейт : 384 Кбит/сек
Каналы : 6 каналов
Channel layout : L R C LFE Ls Rs
Частота : 48,0 КГц
Частота кадров : 31,250 кадров/сек (1536 SPF)
Битовая глубина : 16 бит
Метод сжатия : С потерями
Размер потока : 262 Мбайт (13%)
Заголовок : iTunes | PAREN_HOLLYWOOD (2018) WEB-DL 1080p
Язык : Russian
Default : Да
Forced : Да

Меню
00:00:00.000 : :Глава 1
00:07:32.200 : :Глава 2
00:14:30.800 : :Глава 3
00:19:33.240 : :Глава 4
00:30:30.640 : :Глава 5
00:37:45.800 : :Глава 6
00:43:06.440 : :Глава 7
00:53:06.800 : :Глава 8
01:03:27.480 : :Глава 9
01:12:01.760 : :Глава 10
01:17:16.320 : :Глава 11
01:23:51.560 : :Глава 12
01:30:45.960 : :Глава 13
СЕМПЛ
Источник http://BlaTor.org

Трекер:  [ 29-Ноя-2018 17:50 ]

  

Скачать .torrent

Размер .torrent файла 20 KB


Размер: 1.94 GB
Хэш (hash) релиза: 99bd6ebd3a31c3ab67f4cd3fe759e01715867d1e
Подписка на обновления:

Еще никто не оставлял запись к записи скачать торрент Парень из Голливуда, или Необыкновенные приключения Вени Везунчика . Будь первым!

!Обратная связь