Скачать через торрент Парень из Голливуда, или Необыкновенные приключения Вени Везунчика Фильм бесплатно в хорошем качестве torrent

Скачивайте на UnionPeer.org фильмы через торрент без регистрации. Новинки кино в хорошем качестве через торрент. На UnionPeer.org можно скачать через торрент фильмы 2014 и 2015 годов. Самые новые фильмы.

Скачать торрент Парень из Голливуда, или Необыкновенные приключения Вени Везунчика бесплатно через .torrent фильм мультфильм сериал

 
Автор Сообщение

Galfimbul

avatar Galfimbul


«Никто не застрахован от успеха!»

Парень из Голливуда, или Необыкновенные приключения Вени Везунчика



[b]Год выпуска:
2018
Жанр: Комедия, приключения, семейный
Режиссёр: Роман Светлов
В ролях: Роман Светлов, Станислав Дужников, Ольга Калашникова, Игорь Гузун, Игорь Гаспарян, Денис Матросов, Екатерина Вуличенко, Анатолий Белый, Екатерина Волкова, Артем Манукян

Описание:
На криминального босса по кличке Антиквар объявлена «охота» со стороны иностранных кредиторов из Италии, Японии, Америки. Охрана принимает решение найти двойника для своего шефа и публично подставить его под удар. Выбор падает на молодого артиста Веню Везунчика. Везунчику делается предложение «сняться в Голливудском блокбастере». Казалось, все идет по намеченному плану. Но кто бы мог подумать, в какие нелепые, порой трагикомические, ситуации могут попасть представители криминального мира, положившись на эксцентричного артиста, которому везет даже в самых безвыходных ситуациях.



Страна: Россия
Студия: RFILMSTUDIO
Продолжительность: 01:35:33
Язык: Русский

Файл
Формат: MKV
Качество: WEB-DL 1080p
Видео: 1920x804 (2,40:1), 25 fps, MPEG-4 AVC ~ 4862 kbps avg, 0.126 bit/pixel
Звук: AC3, 48 kHz, 6 ch, ~384.00 kbps avg | русский | iTunes

Субтитры: Отсутствуют
Общее
Уникальный идентификатор : 104316474771753031085854431276896775277 (0x4E7A9F4B7C8F214BA104C24C7AFE6C6D)
Полное имя : PAREN_HOLLYWOOD (2018) WEB-DL 1080p.mkv
Формат : Matroska
Версия формата : Version 4 / Version 2
Размер файла : 3,50 Гбайт
Продолжительность : 1 ч. 35 м.
Общий поток : 5248 Кбит/сек
Название фильма : PAREN_HOLLYWOOD (2018) WEB-DL 1080p
Дата кодирования : UTC 2018-11-29 00:09:22
Программа кодирования : mkvmerge v27.0.0 ('Metropolis') 64-bit
Библиотека кодирования : libebml v1.3.6 + libmatroska v1.4.9

Видео
Идентификатор : 1
Формат : AVC
Формат/Информация : Advanced Video Codec
Профиль формата : High@L4
Настройки формата : CABAC / 5 Ref Frames
Параметр CABAC формата : Да
Параметр RefFrames формата : 5 кадров
Идентификатор кодека : V_MPEG4/ISO/AVC
Продолжительность : 1 ч. 35 м.
Битрейт : 4862 Кбит/сек
Ширина : 1920 пикселей
Высота : 804 пикселя
Соотношение сторон : 2,40:1
Режим частоты кадров : Постоянный
Частота кадров : 25,000 кадров/сек
Цветовое пространство : YUV
Субдискретизация насыщенности : 4:2:0
Битовая глубина : 8 бит
Тип развёртки : Прогрессивная
Бит/(Пиксели*Кадры) : 0.126
Размер потока : 3,25 Гбайт (93%)
Заголовок : PAREN_HOLLYWOOD (2018) WEB-DL 1080p
Язык : English
Default : Да
Forced : Нет
Цветовой диапазон : Limited
Основные цвета : BT.709
Характеристики трансфера : BT.709
Коэффициенты матрицы : BT.709

Аудио
Идентификатор : 2
Формат : AC-3
Формат/Информация : Audio Coding 3
Идентификатор кодека : A_AC3
Продолжительность : 1 ч. 35 м.
Вид битрейта : Постоянный
Битрейт : 384 Кбит/сек
Каналы : 6 каналов
Расположение каналов : Front: L C R, Side: L R, LFE
Частота : 48,0 КГц
Частота кадров : 31,250 кадров/сек (1536 SPF)
Битовая глубина : 16 бит
Метод сжатия : С потерями
Размер потока : 262 Мбайт (7%)
Заголовок : iTunes | PAREN_HOLLYWOOD (2018) WEB-DL 1080p
Язык : Russian
Default : Да
Forced : Да

Меню
00:00:00.000 : en:Глава 1
00:07:32.200 : en:Глава 2
00:14:30.800 : en:Глава 3
00:19:33.240 : en:Глава 4
00:30:30.640 : en:Глава 5
00:37:45.800 : en:Глава 6
00:43:06.440 : en:Глава 7
00:53:06.800 : en:Глава 8
01:03:27.480 : en:Глава 9
01:12:01.760 : en:Глава 10
01:17:16.320 : en:Глава 11
01:23:51.560 : en:Глава 12
01:30:45.960 : en:Глава 13
Источник http://BlaTor.org

Еще никто не оставлял запись к записи скачать торрент Парень из Голливуда, или Необыкновенные приключения Вени Везунчика . Будь первым!

!Обратная связь