Скачать через торрент Любовь по ошибке Фильм бесплатно в хорошем качестве torrent

Скачивайте на UnionPeer.org фильмы через торрент без регистрации. Новинки кино в хорошем качестве через торрент. На UnionPeer.org можно скачать через торрент фильмы 2014 и 2015 годов. Самые новые фильмы.

Скачать торрент Любовь по ошибке бесплатно через .torrent фильм мультфильм сериал

Статистика раздачи
Размер:  1.09 GB   |    Зарегистрирован:  14 дней   |    .torrent скачан:  11 раз   |   
Раздают:  1  
   
загрузка...
 
Автор Сообщение

Galfimbul

avatar Galfimbul


Любовь по ошибке



[b]Год выпуска:
2018
Жанр: Мелодрама
Режиссёр: Дмитрий Магонов
В ролях: Ольга Иванова, Макар Запорожский, София Магонова, Дарья Фекленко, Егор Тимцуник, Валентина Шарыкина, Юлия Франц, Ксения Золотухина

Описание: Лена – молодая девушка, которая не умеет постоять за себя. Она работает кассиром в магазине и одна растит дочку Асю, еле сводя концы с концами. И вот когда на Лену разом наваливаются все проблемы – и с дочкой в садике, и с работой, даже с соседкой, – подруга уговаривает ее пойти к психологу, чтобы научиться справляться с жизненными трудностями. Отчаявшаяся Лена идет на прием. Но в кабинете вместо психолога оказывается совершенно посторонний человек – Виктор. Растерявшись, мужчина начинает слушать сбивчивый рассказ заплаканной Лены. Когда Виктор понимает, что она приняла его за психолога, то уже не решается сказать правду. Лена понравилась ему, и Виктор искренне решает помочь девушке. Но одна ложь тянет за собой другую, и сам он все больше запутывается. Но разве бывает любовь по ошибке? И можно ли строить отношения на лжи?


Страна: Россия
Студия: Кинокомпания «Русское»
Продолжительность: 01:31:23
Перевод: Не требуется
Субтитры: нет

Файл
Формат: avi
Качество: WEB-DLRip
Видео: XviD build 73, 720x400 (16:9), 25.000 fps, 1503 Kbps (~ 0.209 bit/pixel)
Звук: 48.0 kHz, AC3, 2/0 ch, 192 kbps
General
Complete name : D:RazdachiLjubovj.po.oshibke.2018.XviD.WEB-DLRip.GeneralFilm.avi
Format : AVI
Format/Info : Audio Video Interleave
File size : 1.09 GiB
Duration : 1 h 31 min
Overall bit rate : 1 705 kb/s
Writing application : VirtualDubMod 1.5.10.3 | www.virtualdub-fr.org || (build 2550/release)
Writing library : VirtualDubMod build 2550/release

Video
ID : 0
Format : MPEG-4 Visual
Format profile : Advanced Simple@L5
Format settings, BVOP : 1
Format settings, QPel : No
Format settings, GMC : No warppoints
Format settings, Matrix : Custom
Codec ID : XVID
Codec ID/Hint : XviD
Duration : 1 h 31 min
Bit rate : 1 503 kb/s
Width : 720 pixels
Height : 400 pixels
Display aspect ratio : 16:9
Frame rate : 25.000 FPS
Color space : YUV
Chroma subsampling : 4:2:0
Bit depth : 8 bits
Scan type : Progressive
Compression mode : Lossy
Bits/(Pixel*Frame) : 0.209
Stream size : 982 MiB (88%)
Writing library : XviD 73

Audio
ID : 1
Format : AC-3
Format/Info : Audio Coding 3
Format settings, Endianness : Big
Codec ID : 2000
Duration : 1 h 31 min
Bit rate mode : Constant
Bit rate : 192 kb/s
Channel(s) : 2 channels
Channel positions : Front: L R
Sampling rate : 48.0 kHz
Frame rate : 31.250 FPS (1536 SPF)
Bit depth : 16 bits
Compression mode : Lossy
Stream size : 126 MiB (11%)
Alignment : Split accross interleaves
Interleave, duration : 40 ms (1.00 video frame)
Interleave, preload duratio : 500 ms
Service kind : Complete Main
Релиз от:
Источник http://BlaTor.org

Трекер:  [ 01-Дек-2018 21:10 ]

  

Скачать .torrent

Размер .torrent файла 11 KB


Размер: 1.09 GB
Хэш (hash) релиза: 265badeb8f79c5aad4f392a28f84b7c3b3ad657b
Подписка на обновления:

Торренты, похожие на Любовь по ошибке скачать торрент

Форум Название Автор Размер S L Добавлен
Российские фильмы 2016-2018 (Новинки русского кино) ·%· Любовь по ошибке (2018) WEB-DLRip от Files-x Galfimbul 14740070401.37 GB 0 0 1543707696

02:41

2-Дек-18

Еще никто не оставлял запись к записи скачать торрент Любовь по ошибке . Будь первым!

!Обратная связь