Скачать через торрент Человек-муравей и Оса Ant-Man and the Wasp Фильм бесплатно в хорошем качестве torrent

Скачивайте на UnionPeer.org фильмы через торрент без регистрации. Новинки кино в хорошем качестве через торрент. На UnionPeer.org можно скачать через торрент фильмы 2014 и 2015 годов. Самые новые фильмы.

Скачать торрент Человек-муравей и Оса Ant-Man and the Wasp бесплатно через .torrent фильм мультфильм сериал

Статистика раздачи
Размер:  22.96 GB   |    Зарегистрирован:  12 дней   |    .torrent скачан:  54 раза   |   
Раздают:  1  
   
загрузка...
 
Автор Сообщение

Galfimbul

avatar Galfimbul


Человек-муравей и Оса /Ant-Man and the Wasp

Год выхода: 2018
Жанр: фантастика, боевик, приключения
Режиссер: Пейтон Рид
В ролях: Пол Радд, Эванджелин Лилли, Майкл Пенья, Уолтон Гоггинс, Бобби Каннавейл, Джуди Грир, Ти Ай, Давид Дастмалчян, Ханна Джон-Кэймен, Эбби Райдер Фортсон

О фильме:
Скотт Лэнг, известный также, как Человек-Муравей уже заслужил право оказаться в команде Мстителей, но желание быть ближе к собственной дочке удерживает его в родном Сан-Франциско - до тех пор, пока доктор Хэнк Пим, создавший когда-то изменяющий размеры своего владельца чудо-костюм, не призывает Скотта присоединиться к новой, опасной миссии. А помогать в противостоянии с коварным врагом Человеку-Муравью будет новая напарница - Оса.

Страна: США
Студия: Marvel Studios
Продолжительность: 01:58:31
Перевод: Дублированный, авторский

Файл
Кодек: x264
Качество: UHDRip 2160p
Видео: 3840x1608, 24.2 Mbit/s, 23.976 fps, SDR
Звук:
Russian: AC3 / 5.1 / 48 kHz / 640 kbps / 16 bit - Дублированный
Russian: DTS / 5.1 / 48 kHz / 1509 kbps / 24 bit - М.Чадов
English: DTS / 5.1 / 48 kHz / 1509 kbps / 24 bit - Оригинал
Субтитры: Русские, английские
Unique ID : 214007139081614397332402154397127009745 (0xA10046975ADAC92161B9E22EC36DE5D1)
Complete name : Ant_Man_and_the_Wasp.x264.UHDRip.21600p.4K_SDR.mkv
Format : Matroska
Format version : Version 4
File size : 23.0 GiB
Duration : 1 h 58 min
Overall bit rate : 27.8 Mb/s
Movie name : =Ant-Man and the Wasp=
Writing application : mkvmerge v29.0.0 ('Like It Or Not') 64-bit
Writing library : libebml v1.3.6 + libmatroska v1.4.9

Video
ID : 1
Format : AVC
Format/Info : Advanced Video Codec
Format profile : High@L5.1
Format settings : CABAC / 5 Ref Frames
Format settings, CABAC : Yes
Format settings, ReFrames : 5 frames
Codec ID : V_MPEG4/ISO/AVC
Duration : 1 h 58 min
Bit rate : 24.2 Mb/s
Width : 3 840 pixels
Height : 1 608 pixels
Display aspect ratio : 2.40:1
Frame rate mode : Constant
Frame rate : 23.976 (24000/1001) FPS
Color space : YUV
Chroma subsampling : 4:2:0
Bit depth : 8 bits
Scan type : Progressive
Bits/(Pixel*Frame) : 0.163
Stream size : 19.9 GiB (87%)
Title : UHD_2160p_SDR
Writing library : x264 core 157 r2935 545de2f
Encoding settings : cabac=1 / ref=5 / deblock=1:-2:-2 / analyse=0x3:0x113 / me=umh / subme=10 / psy=1 / psy_rd=1.03:0.09 / mixed_ref=1 / me_range=28 / chroma_me=1 / trellis=2 / 8x8dct=1 / cqm=0 / deadzone=21,11 / fast_pskip=1 / chroma_qp_offset=-2 / threads=18 / lookahead_threads=4 / sliced_threads=0 / nr=0 / decimate=1 / interlaced=0 / bluray_compat=0 / constrained_intra=0 / bframes=12 / b_pyramid=2 / b_adapt=2 / b_bias=0 / direct=1 / weightb=1 / open_gop=0 / weightp=2 / keyint=230 / keyint_min=23 / scenecut=40 / intra_refresh=0 / rc_lookahead=120 / rc=crf / mbtree=0 / crf=17.0 / qcomp=0.60 / qpmin=0 / qpmax=69 / qpstep=4 / vbv_maxrate=300000 / vbv_bufsize=300000 / crf_max=0.0 / nal_hrd=none / filler=0 / ip_ratio=1.35 / pb_ratio=1.25 / aq=3:0.75
Language : English
Default : Yes
Forced : No
Color range : Limited
Color primaries : BT.709
Matrix coefficients : BT.709

Audio #1
ID : 2
Format : AC-3
Format/Info : Audio Coding 3
Commercial name : Dolby Digital
Codec ID : A_AC3
Duration : 1 h 58 min
Bit rate mode : Constant
Bit rate : 640 kb/s
Channel(s) : 6 channels
Channel layout : L R C LFE Ls Rs
Sampling rate : 48.0 kHz
Frame rate : 31.250 FPS (1536 SPF)
Bit depth : 16 bits
Compression mode : Lossy
Stream size : 541 MiB (2%)
Title : Dub [License]
Language : Russian
Service kind : Complete Main
Default : No
Forced : Yes

Audio #2
ID : 3
Format : DTS
Format/Info : Digital Theater Systems
Codec ID : A_DTS
Duration : 1 h 58 min
Bit rate mode : Constant
Bit rate : 1 509 kb/s
Channel(s) : 6 channels
Channel layout : C L R Ls Rs LFE
Sampling rate : 48.0 kHz
Frame rate : 93.750 FPS (512 SPF)
Bit depth : 24 bits
Compression mode : Lossy
Stream size : 1.25 GiB (5%)
Title : AVO [M.Chadov]
Language : Russian
Default : Yes
Forced : No

Audio #3
ID : 4
Format : DTS
Format/Info : Digital Theater Systems
Codec ID : A_DTS
Duration : 1 h 58 min
Bit rate mode : Constant
Bit rate : 1 509 kb/s
Channel(s) : 6 channels
Channel layout : C L R Ls Rs LFE
Sampling rate : 48.0 kHz
Frame rate : 93.750 FPS (512 SPF)
Bit depth : 24 bits
Compression mode : Lossy
Stream size : 1.25 GiB (5%)
Title : Original
Language : English
Default : No
Forced : No

Text #1
ID : 5
Format : UTF-8
Codec ID : S_TEXT/UTF8
Codec ID/Info : UTF-8 Plain Text
Duration : 1 h 30 min
Bit rate : 0 b/s
Count of elements : 4
Stream size : 209 Bytes (0%)
Title : Forced
Language : Russian
Default : Yes
Forced : Yes

Text #2
ID : 6
Format : UTF-8
Codec ID : S_TEXT/UTF8
Codec ID/Info : UTF-8 Plain Text
Duration : 1 h 57 min
Bit rate : 88 b/s
Count of elements : 1781
Stream size : 76.0 KiB (0%)
Title : Full
Language : Russian
Default : No
Forced : No

Text #3
ID : 7
Format : UTF-8
Codec ID : S_TEXT/UTF8
Codec ID/Info : UTF-8 Plain Text
Duration : 1 h 57 min
Bit rate : 104 b/s
Count of elements : 2152
Stream size : 89.8 KiB (0%)
Title : SDH
Language : Russian
Default : No
Forced : No

Text #4
ID : 8
Format : UTF-8
Codec ID : S_TEXT/UTF8
Codec ID/Info : UTF-8 Plain Text
Duration : 1 h 50 min
Bit rate : 65 b/s
Count of elements : 1930
Stream size : 53.5 KiB (0%)
Title : Full
Language : English
Default : No
Forced : No

Text #5
ID : 9
Format : UTF-8
Codec ID : S_TEXT/UTF8
Codec ID/Info : UTF-8 Plain Text
Duration : 1 h 57 min
Bit rate : 68 b/s
Count of elements : 2136
Stream size : 59.3 KiB (0%)
Title : SDH
Language : English
Default : No
Forced : No

Text #6
ID : 10
Format : UTF-8
Codec ID : S_TEXT/UTF8
Codec ID/Info : UTF-8 Plain Text
Duration : 1 h 57 min
Bit rate : 98 b/s
Count of elements : 2138
Stream size : 85.2 KiB (0%)
Title : SDH Colored
Language : English
Default : No
Forced : No

Menu
00:00:00.000 : en:00:00:00.000
00:04:03.034 : en:00:04:03.034
00:10:16.407 : en:00:10:16.407
00:13:39.861 : en:00:13:39.861
00:21:25.451 : en:00:21:25.451
00:29:07.829 : en:00:29:07.829
00:36:09.084 : en:00:36:09.084
00:40:56.579 : en:00:40:56.579
00:50:17.431 : en:00:50:17.431
00:58:59.077 : en:00:58:59.077
01:04:56.434 : en:01:04:56.434
01:12:54.287 : en:01:12:54.287
01:18:32.124 : en:01:18:32.124
01:24:44.913 : en:01:24:44.913
01:29:47.340 : en:01:29:47.340
01:36:16.270 : en:01:36:16.270
01:43:35.334 : en:01:43:35.334
01:46:59.830 : en:01:46:59.830
Источник http://BlaTor.org

Трекер:  [ 03-Дек-2018 21:50 ]

  

Скачать .torrent

Размер .torrent файла 115 KB


Размер: 22.96 GB
Хэш (hash) релиза: ed5cab10c5634f9e4d404a787db8964e4c5d28a7
Подписка на обновления:

Торренты, похожие на Человек-муравей и Оса Ant-Man and the Wasp скачать торрент

Форум Название Автор Размер S L Добавлен
Зарубежные фильмы 2016-2018 (Новинки зарубежного кино) ·%· Человек-муравей и Оса / Ant-Man and the Wasp (2018) Blu-ray EUR 1080p | Лицензия Galfimbul 4318053665240.22 GB 0 0 1544894439

20:20

15-Дек-18

Зарубежные фильмы 2016-2018 (Новинки зарубежного кино) ·%· Человек-муравей и Оса / Ant-Man and the Wasp (2018) DVD9 | Лицензия Galfimbul 71224934406.63 GB 0 0 1544835649

04:00

15-Дек-18

Зарубежные фильмы 2016-2018 (Новинки зарубежного кино) ·%· Человек-муравей и Оса / Ant-Man and the Wasp (2018) BDRemux 1080p | D, A Galfimbul 4450443286041.45 GB 0 0 1544303414

00:10

9-Дек-18

Зарубежные фильмы 2016-2018 (Новинки зарубежного кино) ·%· Человек-муравей и Оса / Ant-Man and the Wasp (2018) BDRip-AVC от MediaClub | D, A Galfimbul 24376799222.27 GB 0 0 1544020264

17:31

5-Дек-18

Зарубежные фильмы 2016-2018 (Новинки зарубежного кино) ·%· Человек-муравей и Оса / Ant-Man and the Wasp (2018) BDRip-AVC от ExKinoRay | Лицензия Galfimbul 15601137671.45 GB 0 0 1543414257

17:10

28-Ноя-18

Зарубежные фильмы 2016-2018 (Новинки зарубежного кино) ·%· Человек-муравей и Оса / Ant-Man and the Wasp (2018) BDRip 720p от NNNB | 60 fps | Лицензия Galfimbul 73967164706.89 GB 0 0 1542547289

16:21

18-Ноя-18

Зарубежные фильмы 2016-2018 (Новинки зарубежного кино) ·%· Человек-муравей и Оса / Ant-Man and the Wasp (2018) BDRip от HQ-ViDEO | D Galfimbul 23403601922.18 GB 0 0 1541997612

07:40

12-Ноя-18

Зарубежные фильмы 2016-2018 (Новинки зарубежного кино) ·%· Человек-муравей и Оса / Ant-Man and the Wasp (2018) BDRemux 1080p от селезень | 3D-Video | Лицензия Galfimbul 3575637606433.3 GB 0 0 1541752870

11:41

9-Ноя-18

Зарубежные фильмы 2016-2018 (Новинки зарубежного кино) ·%· Человек-муравей и Оса / Ant-Man and the Wasp (2018) HDRip от Generalfilm | КПК | Лицензия Galfimbul 471027288449 MB 0 0 1541718629

02:10

9-Ноя-18

Зарубежные фильмы 2016-2018 (Новинки зарубежного кино) ·%· Человек-муравей и Оса / Ant-Man and the Wasp (2018) UHD BDRemux 2160p от селезень | 4K | HDR | Лицензия Galfimbul 4432183294941.28 GB 0 0 1541715051

01:10

9-Ноя-18

Зарубежные фильмы 2016-2018 (Новинки зарубежного кино) ·%· Человек-муравей и Оса / Ant-Man and the Wasp (2018) BDRip-HEVC 1080p от KORSAR | Лицензия Galfimbul 57948370915.4 GB 0 0 1541710215

23:50

8-Ноя-18

Зарубежные фильмы 2016-2018 (Новинки зарубежного кино) ·%· Человек-муравей и Оса / Ant-Man and the Wasp (2018) BDRemux 1080p от селезень | Лицензия Galfimbul 3292469802430.66 GB 0 0 1541700071

21:01

8-Ноя-18

Зарубежные фильмы 2016-2018 (Новинки зарубежного кино) ·%· Человек-муравей и Оса / Ant-Man and the Wasp (2018) HDRip-AVC от OlLanDGroup | Лицензия Galfimbul 24701096182.3 GB 0 0 1541673030

13:30

8-Ноя-18

Зарубежные фильмы 2016-2018 (Новинки зарубежного кино) ·%· Человек-муравей и Оса / Ant-Man and the Wasp (2018) WEBRip 1080p | Локализованный видеоряд | Open Matte | D Galfimbul 62431619965.81 GB 0 0 1540302009

16:40

23-Окт-18

Зарубежные фильмы 2016-2018 (Новинки зарубежного кино) ·%· Человек-муравей и Оса / Ant-Man and the Wasp (2018) WEBRip от Dalemake | Локализованный видеоряд | Open Matte | D Galfimbul 15723827201.46 GB 0 0 1539981622

23:40

19-Окт-18

Зарубежные фильмы 2016-2018 (Новинки зарубежного кино) ·%· Человек-муравей и Оса / Ant-Man and the Wasp (2018) BDRip 1080p от Ash61 | 3D-Video | halfOU | iTunes Galfimbul 90506562368.43 GB 0 0 1539818410

02:20

18-Окт-18

Зарубежные фильмы 2016-2018 (Новинки зарубежного кино) ·%· Человек-муравей и Оса / Ant-Man and the Wasp (2018) BDRip-AVC от HELLYWOOD | iTunes Galfimbul 15097493431.41 GB 0 0 1539775882

14:31

17-Окт-18

Зарубежные фильмы 2016-2018 (Новинки зарубежного кино) ·%· Человек-муравей и Оса / Ant-Man and the Wasp (2018) HDRip-AVC от ExKinoRay | iTunes Galfimbul 782550889746 MB 0 0 1539667263

08:21

16-Окт-18

Зарубежные фильмы 2016-2018 (Новинки зарубежного кино) ·%· Человек-муравей и Оса / Ant-Man and the Wasp (2018) UHD BDRemux 2160p от TeamHD | 4K | HDR | iTunes Galfimbul 4426544274041.23 GB 0 0 1539402607

06:50

13-Окт-18

Еще никто не оставлял запись к записи скачать торрент Человек-муравей и Оса Ant-Man and the Wasp . Будь первым!

!Обратная связь