Скачать через торрент Баттл Battle Фильм бесплатно в хорошем качестве torrent

Скачивайте на UnionPeer.org фильмы через торрент без регистрации. Новинки кино в хорошем качестве через торрент. На UnionPeer.org можно скачать через торрент фильмы 2014 и 2015 годов. Самые новые фильмы.

Скачать торрент Баттл Battle бесплатно через .torrent фильм мультфильм сериал

Статистика раздачи
Размер:  1.78 GB   |    Зарегистрирован:  12 дней   |    .torrent скачан:  60 раз   |   
Раздают:  1  
   
загрузка...
 
Автор Сообщение

Galfimbul

avatar Galfimbul


Баттл / Battle

Год выпуска: 2018
Жанр: Драма
Выпущено: Норвегия, Friland,Storm Films,Adomeit Film
Режиссер: Катарина Лаунинг
В ролях: Лиза Тейге, Вебьёрн Энгер, Карен-Лиза Мюнстер, Стиг Р. Амдам, Фабиан Свегаард Тапиа, Софи Альбертина Фосс, Морад Азиман, Насилие Мариуса

О фильме: После того как отец Амалии становится банкротом, богатая жизнь молодой танцовщицы рушится. Но затем всё меняется, когда она встречает молодого хип-хоп танцора Микаэля.



Техданные
Качество: WEBRip (720p)
Видео: MPEG-4 AVC, 2200 Kb/s, 1280x530, 25.000 FPS
Аудио: AC3, 6 ch, 384 Кбит/с
Продолжительность: 01:38:40
Перевод: Любительский двухголосый закадровый (LakeFilms)
Присутствует реклама!
General
Unique ID : 214491817593721353962943793738673550109 (0xA15D9F163B52B545794446D6C047F31D)
Complete name : E:Battle.2018.WEBRip.720p.LakeFilms
Format : Matroska
Format version : Version 4 / Version 2
File size : 1.78 GiB
Duration : 1h 38mn
Overall bit rate : 2 577 Kbps
Writing application : XviD4PSP 7.0.459 DAILY
Writing library : Lavf57.71.100
ENCODING_INFO : MATROSKA,WEBM > MKV / H264 > X264 ABR 2200kbps Very Fast / AAC-LC > AC3 CBR 384kbps

Video
ID : 1
Format : AVC
Format/Info : Advanced Video Codec
Format profile : High@L3.1
Format settings, CABAC : Yes
Format settings, ReFrames : 4 frames
Codec ID : V_MPEG4/ISO/AVC
Duration : 1h 38mn
Bit rate : 2 200 Kbps
Width : 1 280 pixels
Height : 530 pixels
Display aspect ratio : 2.40:1
Frame rate mode : Constant
Frame rate : 25.000 fps
Color space : YUV
Chroma subsampling : 4:2:0
Bit depth : 8 bits
Scan type : Progressive
Bits/(Pixel*Frame) : 0.130
Stream size : 1.48 GiB (83%)
Writing library : x264 core 157 r2901M 7d0ff22
Encoding settings : cabac=1 / ref=1 / deblock=1:-1:-1 / analyse=0x3:0x113 / me=hex / subme=2 / psy=1 / psy_rd=1.00:0.00 / mixed_ref=0 / me_range=16 / chroma_me=1 / trellis=0 / 8x8dct=1 / cqm=0 / deadzone=21,11 / fast_pskip=1 / chroma_qp_offset=0 / threads=5 / lookahead_threads=1 / sliced_threads=0 / nr=0 / decimate=1 / interlaced=0 / bluray_compat=0 / constrained_intra=0 / bframes=3 / b_pyramid=2 / b_adapt=1 / b_bias=0 / direct=1 / weightb=1 / open_gop=0 / weightp=1 / keyint=250 / keyint_min=25 / scenecut=40 / intra_refresh=0 / rc_lookahead=10 / rc=abr / mbtree=1 / bitrate=2200 / ratetol=1.0 / qcomp=0.60 / qpmin=0 / qpmax=69 / qpstep=4 / ip_ratio=1.40 / aq=1:1.00
Default : Yes
Forced : No

Audio
ID : 2
Format : AC-3
Format/Info : Audio Coding 3
Mode extension : CM (complete main)
Format settings, Endianness : Big
Codec ID : A_AC3
Duration : 1h 38mn
Bit rate mode : Constant
Bit rate : 384 Kbps
Channel(s) : 6 channels
Channel positions : Front: L C R, Side: L R, LFE
Sampling rate : 48.0 KHz
Bit depth : 16 bits
Compression mode : Lossy
Stream size : 271 MiB (15%)
Default : Yes
Forced : No
Источник http://BlaTor.org

Трекер:  [ 04-Дек-2018 05:50 ]

  

Скачать .torrent

Размер .torrent файла 18 KB


Размер: 1.78 GB
Хэш (hash) релиза: b56450d1cca4c35b9f7af2e05197723e1a76b9f9
Подписка на обновления:

Торренты, похожие на Баттл Battle скачать торрент

Форум Название Автор Размер S L Добавлен
Зарубежные фильмы 2016-2018 (Новинки зарубежного кино) ·%· Баттл / Battle (2018) WEBRip | LakeFilms Galfimbul 12566669021.17 GB 0 0 1543852256

18:50

3-Дек-18

Еще никто не оставлял запись к записи скачать торрент Баттл Battle . Будь первым!

!Обратная связь