Скачать через торрент Огни большой деревни Фильм бесплатно в хорошем качестве torrent

Скачивайте на UnionPeer.org фильмы через торрент без регистрации. Новинки кино в хорошем качестве через торрент. На UnionPeer.org можно скачать через торрент фильмы 2014 и 2015 годов. Самые новые фильмы.

Скачать торрент Огни большой деревни бесплатно через .torrent фильм мультфильм сериал

Статистика раздачи
Размер:  2.84 GB   |    Зарегистрирован:  1 год 8 месяцев   |    .torrent скачан:  383 раза   |   
Раздают:  1  
   
загрузка...
 
Автор Сообщение

Galfimbul

avatar Galfimbul


Огни большой деревни



[b]Год выхода:
2016
Жанр: комедия
Режиссер: Илья Учитель
В ролях: Дмитрий Дюжев, Кирилл Фролов, Максим Емельянов, Анастасия Мытражик, Василий Кортуков, Юрий Быков, Тагир Рахимов, Карен Мартиросян, Кирилл Полухин, Анна Воркуева

О фильме: «Родина» в смертельной опасности. Ровно через неделю ее сравняют с землей. Спасти кинотеатр может только успешная премьера. За дело берется пара супергероев без суперспособностей. В их распоряжении — камера, девушка-ниндзя и Дмитрий Дюжев. Правда, он об этом еще не знает.



Страна: Россия / ТПО Рок
Продолжительность: 01:21:22
Перевод: не требуется (оригинал) [iTunes]

Файл
Качество: WEB-DLRip 1080p
Формат: MKV
Видео: MPEG-4 AVC, 4600 Кбит/с, 1920x804
Звук: AC-3, 384 Кбит/сек (6 ch)
Субтитры: нет

Формат : Matroska
Версия формата : Version 2
Размер файла : 2,84 Гбайт
Продолжительность : 1 ч. 21 м.
Общий поток : 4990 Кбит/сек
Дата кодирования : UTC 2017-04-02 18:13:24
Программа кодирования : mkvmerge v8.3.0 ('Over the Horizon') 64bit
Библиотека кодирования : libebml v1.3.1 + libmatroska v1.4.2

Видео
Идентификатор : 1
Формат : AVC
Формат/Информация : Advanced Video Codec
Профиль формата : High@L4.0
Параметр CABAC формата : Да
Параметр ReFrames формата : 5 кадров
Идентификатор кодека : V_MPEG4/ISO/AVC
Продолжительность : 1 ч. 21 м.
Битрейт : 4507 Кбит/сек
Ширина : 1920 пикселей
Высота : 804 пикселя
Соотношение сторон : 2,40:1
Режим частоты кадров : Постоянный
Частота кадров : 24,000 кадра/сек
Цветовое пространство : YUV
Субдискретизация насыщенности : 4:2:0
Битовая глубина : 8 бит
Тип развёртки : Прогрессивная
Бит/(Пиксели*Кадры) : 0.122
Размер потока : 2,56 Гбайт (90%)
Язык : English
Default : Да
Forced : Нет
Основные цвета : BT.709
Характеристики трансфера : BT.709
Коэффициенты матрицы : BT.709

Аудио
Идентификатор : 2
Формат : AC-3
Формат/Информация : Audio Coding 3
Расширение режима : CM (complete main)
Параметр Endianness формата : Big
Идентификатор кодека : A_AC3
Продолжительность : 1 ч. 21 м.
Вид битрейта : Постоянный
Битрейт : 384 Кбит/сек
Каналы : 6 каналов
Расположение каналов : Front: L C R, Side: L R, LFE
Частота : 48,0 КГц
Битовая глубина : 16 бит
Метод сжатия : С потерями
Размер потока : 223 Мбайт (8%)
Язык : Russian
Default : Да
Forced : Нет

Меню
00:00:00.000 : en:Глава 1
00:05:46.958 : en:Глава 2
00:10:02.749 : en:Глава 3
00:16:29.707 : en:Глава 4
00:21:05.040 : en:Глава 5
00:24:44.165 : en:Глава 6
00:30:13.665 : en:Глава 7
00:36:20.831 : en:Глава 8
00:41:29.581 : en:Глава 9
00:46:50.914 : en:Глава 10
00:53:53.539 : en:Глава 11
01:00:46.747 : en:Глава 12
01:07:35.788 : en:Глава 13
01:13:09.204 : en:Глава 14


Трекер:  [ 03-Апр-2017 02:30 ]

  

Скачать .torrent

Размер .torrent файла 14 KB


Размер: 2.84 GB
Хэш (hash) релиза: 3f35cc6e94d2727a6bf328878e972ebcfd6a24b8
Подписка на обновления:

Еще никто не оставлял запись к записи скачать торрент Огни большой деревни . Будь первым!

!Обратная связь