Скачать через торрент Черновик Фильм бесплатно в хорошем качестве torrent

Скачивайте на UnionPeer.org фильмы через торрент без регистрации. Новинки кино в хорошем качестве через торрент. На UnionPeer.org можно скачать через торрент фильмы 2014 и 2015 годов. Самые новые фильмы.

Скачать торрент Черновик бесплатно через .torrent фильм мультфильм сериал

Статистика раздачи
Размер:  4.19 GB   |    Зарегистрирован:  4 месяца 19 дней   |    .torrent скачан:  434 раза   |   
Раздают:  1  
   
загрузка...
 
Автор Сообщение

Galfimbul

avatar Galfimbul


Жанр: Фантастика
Режиссер: Сергей Мокрицкий
Продюсер: Наталья Мокрицкая, Ульяна Савельева, Мила Розанова
Актеры: Никита Волков, Евгений Ткачук, Ольга Боровская, Юлия Пересильд, Северия Янушаускайте, Евгений Цыганов, Елена Яковлева, Ирина Демидкина, Андрей Мерзликин, Андрей Руденский

Описание:
Молодой москвич Кирилл — талантливый дизайнер компьютерных игр. В один прекрасный день он оказывается напрочь стертым из памяти всех, кого он знал и любил. Кирилл узнает, что выбран для важной и таинственной миссии. Его предназначение — стать таможенником между параллельными мирами, коих во Вселенной десятки. Сможет ли Кирилл разгадать тайну этих таинственных миров и того, кто и зачем ими управляет? И действительно ли наша Земля — всего лишь воображаемый «черновик», параллельный мир, которого в Реальности не существует.


Производство: Россия, Новые люди
Возраст: 12+ (зрителям, достигшим 12 лет)
Дата мировой премьеры: 31 мая 2018
Дата российской премьеры: 25 мая 2018, «WDSSPR»

Продолжительность: 01:55:33
Перевод: Не требуется (Русский)
Субтитры: Отсутствуют

Качество видео: WEB-DL 1080p
Видео: AVC/H.264, 1920x804 (2.40:1), 5000 kbps
Аудио: 48 kHz, AC3 Dolby Digital, 2/0 (L,R) ch, ~192 kbps
Общее
Уникальный идентификатор : 202805318068205360530924570170082839473 (0x9892E22CB7FDB8AB9A95D66278BDCBB1)
Полное имя : D:Черновик.2018.WEB-DL.[1080p].NNMClub.mkv
Формат : Matroska
Версия формата : Version 4 / Version 2
Размер файла : 4,19 Гбайт
Продолжительность : 1 ч. 55 м.
Общий поток : 5193 Кбит/сек
Дата кодирования : UTC 2018-07-27 13:32:03
Программа кодирования : mkvmerge v8.3.0 ('Over the Horizon') 64bit
Библиотека кодирования : libebml v1.3.1 + libmatroska v1.4.2

Видео
Идентификатор : 1
Формат : AVC
Формат/Информация : Advanced Video Codec
Профиль формата : High@L4
Настройки формата : CABAC / 3 Ref Frames
Параметр CABAC формата : Да
Параметр RefFrames формата : 3 кадра
Идентификатор кодека : V_MPEG4/ISO/AVC
Продолжительность : 1 ч. 55 м.
Битрейт : 5000 Кбит/сек
Ширина : 1920 пикселей
Высота : 804 пикселя
Соотношение сторон : 2,40:1
Режим частоты кадров : Постоянный
Частота кадров : 24,000 кадра/сек
Цветовое пространство : YUV
Субдискретизация насыщенности : 4:2:0
Битовая глубина : 8 бит
Тип развёртки : Прогрессивная
Бит/(Пиксели*Кадры) : 0.135
Размер потока : 4,04 Гбайт (96%)
Язык : Russian
Default : Да
Forced : Нет
Цветовой диапазон : Limited
Основные цвета : BT.709
Характеристики трансфера : BT.709
Коэффициенты матрицы : BT.709

Аудио
Идентификатор : 2
Формат : AC-3
Формат/Информация : Audio Coding 3
Идентификатор кодека : A_AC3
Продолжительность : 1 ч. 55 м.
Вид битрейта : Постоянный
Битрейт : 192 Кбит/сек
Каналы : 2 канала
Расположение каналов : Front: L R
Частота : 48,0 КГц
Частота кадров : 31,250 кадров/сек (1536 SPF)
Битовая глубина : 16 бит
Метод сжатия : С потерями
Размер потока : 159 Мбайт (4%)
Язык : Russian
ServiceKind : Complete Main
Default : Да
Forced : Нет
Источник http://BlaTor.org

Трекер:  [ 27-Июл-2018 18:00 ]

  

Скачать .torrent

Размер .torrent файла 21 KB


Размер: 4.19 GB
Хэш (hash) релиза: 67ae72ec4c272ce2834086d858b5e1dcb5e659fc
Подписка на обновления:

Торренты, похожие на Черновик скачать торрент

Форум Название Автор Размер S L Добавлен
Российские фильмы 2016-2018 (Новинки русского кино) ·%· Черновик (2018) HDRip от Scarabey | Лицензия Galfimbul 15533445121.45 GB 0 0 1537553666

21:14

21-Сен-18

Российские фильмы 2016-2018 (Новинки русского кино) ·%· Черновик (2018) HDRip от Portablius | GER Transfer | Лицензия Galfimbul 782833664747 MB 0 0 1537438369

13:12

20-Сен-18

Российские фильмы 2016-2018 (Новинки русского кино) ·%· Черновик (2018) BDRip-AVC от HELLYWOOD | GER Transfer | Лицензия Galfimbul 23368136832.18 GB 0 0 1537413019

06:10

20-Сен-18

Российские фильмы 2016-2018 (Новинки русского кино) ·%· Черновик (2018) BDRip 720p | GER Transfer | Лицензия Galfimbul 68343156606.36 GB 0 0 1537281241

17:34

18-Сен-18

Российские фильмы 2016-2018 (Новинки русского кино) ·%· Черновик (2018) Blu-ray 1080p | GER Transfer | Лицензия Galfimbul 4157394886338.72 GB 0 0 1537273894

15:31

18-Сен-18

Российские фильмы 2016-2018 (Новинки русского кино) ·%· Черновик (2018) BDRip 1080p от OlLanDGroup | GER Transfer | Лицензия Galfimbul 107087036139.97 GB 0 0 1537247416

08:10

18-Сен-18

Российские фильмы 2016-2018 (Новинки русского кино) ·%· Черновик (2018) BDRemux 1080p | Лицензия Galfimbul 3395815615731.63 GB 0 0 1537226445

02:20

18-Сен-18

Российские фильмы 2016-2018 (Новинки русского кино) ·%· Черновик (2018) WEB-DLRip от Generalfilm | КПК Galfimbul 460814592439 MB 0 0 1532802615

21:30

28-Июл-18

Российские фильмы до 2016 ·%· Черновик (Сергей Мокрицкий) [2018, фантастика, WEB-DLRip] Galfimbul 15623065601.46 GB 0 0 1532771655

12:54

28-Июл-18

Российские фильмы 2016-2018 (Новинки русского кино) ·%· Черновик (2018) WEB-DLRip-AVC от Files-x Galfimbul 15612109701.45 GB 0 0 1532758814

09:20

28-Июл-18

Российские фильмы до 2016 ·%· Черновик (Сергей Мокрицкий) [2018, Россия, Фантастика, WEB-DL 1080p] + Original Rus Galfimbul 45007229804.19 GB 0 0 1532750477

07:01

28-Июл-18

Российские фильмы 2016-2018 (Новинки русского кино) ·%· Черновик (2018) WEB-DLRip-AVC от GeneralFilm Galfimbul 15773380391.47 GB 0 0 1532744410

05:20

28-Июл-18

Российские фильмы 2016-2018 (Новинки русского кино) ·%· Черновик (2018) WEB-DLRip-AVC от ExKinoRay Galfimbul 13899565931.29 GB 0 0 1532741462

04:31

28-Июл-18

Российские фильмы 2016-2018 (Новинки русского кино) ·%· Черновик (2018) WEB-DLRip от GeneralFilm Galfimbul 15623065601.46 GB 0 0 1532721008

22:50

27-Июл-18

Российские фильмы 2016-2018 (Новинки русского кино) ·%· Черновик (2018) WEB-DLRip от GeneralFilm Galfimbul 782737408746 MB 0 0 1532712080

20:21

27-Июл-18

Еще никто не оставлял запись к записи скачать торрент Черновик . Будь первым!

!Обратная связь