Скачать через торрент Килиманджара Фильм бесплатно в хорошем качестве torrent

Скачивайте на UnionPeer.org фильмы через торрент без регистрации. Новинки кино в хорошем качестве через торрент. На UnionPeer.org можно скачать через торрент фильмы 2014 и 2015 годов. Самые новые фильмы.

Скачать торрент Килиманджара бесплатно через .torrent фильм мультфильм сериал

Статистика раздачи
Размер:  1.09 GB   |    Зарегистрирован:  1 месяц 26 дней   |    .torrent скачан:  187 раз   |   
Раздают:  1  
   
загрузка...
 
Автор Сообщение

Galfimbul

avatar Galfimbul


Информация о фильме
Килиманджара



[b]Год выхода:
2018
Жанр: Комедия, приключения
Режиссер: Катерина Телегина
В ролях: Павел Прилучный, Ирина Старшенбаум, Максим Виторган, Таир Иманов, Тимофей Трибунцев, Варвара Бородина, Мария Смольникова, Артем Сучков, Мурад Мамедов

О фильме:
У москвички Маруси в день свадьбы исчезает жених. Но девушка не собирается этого так оставлять. Она решительно настроена отыскать его, а для этого собирает команду друзей, с которыми отправляется в Баку, на родину своего суженого. Но никто из друзей и предположить не мог, что впереди их ждет множество приключений, которые отразятся на жизни каждого из них.


Страна: Россия
Студия: ПЦ «Среда», «Планета парни из Баку филмс»
Продолжительность: 01:12:45
Перевод: Не требуется
Субтитры: нет

Файл
Формат: avi
Качество: WEB-DLRip
Видео: XviD build 73, 720x304 (2.35:1), 25.000 fps, 1936 Kbps (0.354 bit/pixel)
Звук: 48.0 kHz, AC3, 2/0 ch, 192 kbps
General
Complete name : D:RazdachiKilimandzhara.2018.XviD.WEB-DLRip.1.08Gb.GeneralFilm.avi
Format : AVI
Format/Info : Audio Video Interleave
File size : 1.09 GiB
Duration : 1 h 12 min
Overall bit rate : 2 138 kb/s
Writing application : VirtualDubMod 1.5.10.3 | www.virtualdub-fr.org || (build 2550/release)
Writing library : VirtualDubMod build 2550/release

Video
ID : 0
Format : MPEG-4 Visual
Format profile : Advanced Simple@L5
Format settings, BVOP : 1
Format settings, QPel : No
Format settings, GMC : No warppoints
Format settings, Matrix : Custom
Codec ID : XVID
Codec ID/Hint : XviD
Duration : 1 h 12 min
Bit rate : 1 936 kb/s
Width : 720 pixels
Height : 304 pixels
Display aspect ratio : 2.35:1
Frame rate : 25.000 FPS
Color space : YUV
Chroma subsampling : 4:2:0
Bit depth : 8 bits
Scan type : Progressive
Compression mode : Lossy
Bits/(Pixel*Frame) : 0.354
Stream size : 1 007 MiB (91%)
Writing library : XviD 73

Audio
ID : 1
Format : AC-3
Format/Info : Audio Coding 3
Format settings, Endianness : Big
Codec ID : 2000
Duration : 1 h 12 min
Bit rate mode : Constant
Bit rate : 192 kb/s
Channel(s) : 2 channels
Channel positions : Front: L R
Sampling rate : 48.0 kHz
Frame rate : 31.250 FPS (1536 SPF)
Bit depth : 16 bits
Compression mode : Lossy
Stream size : 99.9 MiB (9%)
Alignment : Split accross interleaves
Interleave, duration : 40 ms (1.00 video frame)
Interleave, preload duratio : 500 ms
Service kind : Complete Main
Релиз от:
Источник http://BlaTor.org

Трекер:  [ 20-Окт-2018 18:00 ]

  

Скачать .torrent

Размер .torrent файла 11 KB


Размер: 1.09 GB
Хэш (hash) релиза: ad9fdd58181c1d6cc4ab5923d2c389965197d6ff
Подписка на обновления:

Торренты, похожие на Килиманджара скачать торрент

Форум Название Автор Размер S L Добавлен
Российские фильмы 2016-2018 (Новинки русского кино) ·%· Килиманджара (2018) WEB-DLRip-AVC Galfimbul 682950653651 MB 0 0 1540041866

16:24

20-Окт-18

Российские фильмы 2016-2018 (Новинки русского кино) ·%· Килиманджара (2018) WEB-DLRip Galfimbul 11706982401.09 GB 0 0 1540026612

12:10

20-Окт-18

Российские фильмы 2016-2018 (Новинки русского кино) ·%· Килиманджара (2018) WEB-DL 1080p Galfimbul 28977004812.7 GB 0 0 1540024833

11:40

20-Окт-18

Российские фильмы 2016-2018 (Новинки русского кино) ·%· Килиманджара (2018) WEB-DLRip-AVC от OlLanDGroup Galfimbul 11214237131.04 GB 0 0 1540000290

04:51

20-Окт-18

Документальные фильмы и телепередачи ·· Панорама 360° Объект всемирного наследия: Килиманджаро / Access 360° World Heritage: Kilimanjaro [2013, Документальный, SATRip] L 723758956690 MB 0 0 1362478767

13:19

5-Мар-13

Зарубежные фильмы до 2016 ·· Килиманджаро / Kilimanjaro (Сын Ук О / Seung-ook Oh) [2000, Южная Корея, драма, криминал, триллер, DVDRip] VO (den904) Galfimbul 15203594241.42 GB 0 0 1356340500

12:15

24-Дек-12

Еще никто не оставлял запись к записи скачать торрент Килиманджара . Будь первым!

!Обратная связь